391

Re: Проблемы с подкастами

Oompaloomp пишет:

Не работают подкасты по технологии торрента, просто в одночасье перестали работать.

Для начала, нужно добиться работы тестового транскодирования.
После этого и проверки, что временный видео создаётся, проверить настройки устройства в программе. Если пишет, что выбранный файл не поддерживается, то это значит, что в настройках устройства неправильно настроены параметры выходного файла при транскодировании (видео и аудио кодек, контейнер и проч).

Sony Bravia KDL-32CX523

392 (2019.12.18 16:41:30 отредактировано Oompaloomp)

Re: Проблемы с подкастами

WendyH пишет:

Для начала, нужно добиться работы тестового транскодирования.

Работает

+ Инфо тестового транскода

Командная строка

"F:\Home Media Server\hmsmpeg.exe" -probesize 7000000 -analyzeduration 10000000 -fix_sub_duration -f "matroska,webm" -i "torrent:F:\ProgramData\hms\HmsTemp\Torrents\0815636b06c401d927fe7df5bf1d9f09.torrent?index=0&savepath=F:\ProgramData\hms\HmsTemp\Torrents" -f mpegts -vcodec mpeg2video -q:v 0 -pix_fmt yuv420p -vf "scale=1280:720,setdar=16/9" -acodec ac3 -ab 448000 -ar 48000 -ac 6 "F:\ProgramData\hms\HmsTemp\Test_7043dfbc1c490721b59cf49971554220.ts"

+ Сообщения

"F:\Home Media Server\hmsmpeg.exe" -probesize 7000000 -analyzeduration 10000000 -fix_sub_duration -f "matroska,webm" -i "torrent:F:\ProgramData\hms\HmsTemp\Torrents\0815636b06c401d927fe7df5bf1d9f09.torrent?index=0&savepath=F:\ProgramData\hms\HmsTemp\Torrents" -f mpegts -vcodec mpeg2video -q:v 0 -pix_fmt yuv420p -vf "scale=1280:720,setdar=16/9" -acodec ac3 -ab 448000 -ar 48000 -ac 6 "F:\ProgramData\hms\HmsTemp\Test_7043dfbc1c490721b59cf49971554220.ts"

ffmpeg version 4.1.1 Copyright (c) 2000-2019 the FFmpeg developers
built with gcc 7.1.0 (i686-win32-sjlj-rev2, Built by MinGW-W64 project)
Guessed Channel Layout for Input Stream #0.2 : 5.1
Input #0, matroska,webm, from 'torrent:F:\ProgramData\hms\HmsTemp\Torrents\0815636b06c401d927fe7df5bf1d9f09.torrent?index=0&savepath=F:\ProgramData\hms\HmsTemp\Torrents':
Metadata:
title           : Warrior 01x01 (The Itchy Onion) - EniaHD
encoder         : libebml v1.3.7 + libmatroska v1.5.0
creation_time   : 2019-04-18T04:28:13.000000Z
Duration: 01:00:53.65, start: 0.000000, bitrate: 3770 kb/s
Stream #0:0: Video: h264 (High), yuv420p(tv, bt709, progressive), 1280x720 [SAR 1:1 DAR 16:9], 23.98 fps, 23.98 tbr, 1k tbn, 47.95 tbc (default)
Metadata:
BPS-eng         : 2487872
DURATION-eng    : 01:00:53.650000000
NUMBER_OF_FRAMES-eng: 87600
NUMBER_OF_BYTES-eng: 1136227094
_STATISTICS_WRITING_APP-eng: mkvmerge v33.1.0 ('Primrose') 64-bit
_STATISTICS_WRITING_DATE_UTC-eng: 2019-04-18 04:28:13
_STATISTICS_TAGS-eng: BPS DURATION NUMBER_OF_FRAMES NUMBER_OF_BYTES
Stream #0:1(rus): Audio: ac3, 48000 Hz, 5.1(side), fltp, 640 kb/s (default)
Metadata:
title           : Cyrillica
BPS-eng         : 640000
DURATION-eng    : 01:00:53.632000000
NUMBER_OF_FRAMES-eng: 114176
NUMBER_OF_BYTES-eng: 292290560
_STATISTICS_WRITING_APP-eng: mkvmerge v33.1.0 ('Primrose') 64-bit
_STATISTICS_WRITING_DATE_UTC-eng: 2019-04-18 04:28:13
_STATISTICS_TAGS-eng: BPS DURATION NUMBER_OF_FRAMES NUMBER_OF_BYTES
Stream #0:2(eng): Audio: eac3, 48000 Hz, 5.1, fltp
Metadata:
BPS-eng         : 640000
DURATION-eng    : 01:00:53.632000000
NUMBER_OF_FRAMES-eng: 114176
NUMBER_OF_BYTES-eng: 292290560
_STATISTICS_WRITING_APP-eng: mkvmerge v33.1.0 ('Primrose') 64-bit
_STATISTICS_WRITING_DATE_UTC-eng: 2019-04-18 04:28:13
_STATISTICS_TAGS-eng: BPS DURATION NUMBER_OF_FRAMES NUMBER_OF_BYTES
Stream #0:3(rus): Subtitle: subrip (default) (forced)
Metadata:
title           : Forced
BPS-eng         : 6
DURATION-eng    : 00:34:31.527000000
NUMBER_OF_FRAMES-eng: 29
NUMBER_OF_BYTES-eng: 1649
_STATISTICS_WRITING_APP-eng: mkvmerge v33.1.0 ('Primrose') 64-bit
_STATISTICS_WRITING_DATE_UTC-eng: 2019-04-18 04:28:13
_STATISTICS_TAGS-eng: BPS DURATION NUMBER_OF_FRAMES NUMBER_OF_BYTES
Stream #0:4(rus): Subtitle: subrip
Metadata:
title           : Full
BPS-eng         : 73
DURATION-eng    : 00:59:32.944000000
NUMBER_OF_FRAMES-eng: 711
NUMBER_OF_BYTES-eng: 32792
_STATISTICS_WRITING_APP-eng: mkvmerge v33.1.0 ('Primrose') 64-bit
_STATISTICS_WRITING_DATE_UTC-eng: 2019-04-18 04:28:13
_STATISTICS_TAGS-eng: BPS DURATION NUMBER_OF_FRAMES NUMBER_OF_BYTES
Stream #0:5(eng): Subtitle: subrip
Metadata:
title           : SDH
BPS-eng         : 55
DURATION-eng    : 01:00:48.124000000
NUMBER_OF_FRAMES-eng: 997
NUMBER_OF_BYTES-eng: 25488
_STATISTICS_WRITING_APP-eng: mkvmerge v33.1.0 ('Primrose') 64-bit
_STATISTICS_WRITING_DATE_UTC-eng: 2019-04-18 04:28:13
_STATISTICS_TAGS-eng: BPS DURATION NUMBER_OF_FRAMES NUMBER_OF_BYTES
Stream mapping:
Stream #0:0 -> #0:0 (h264 (native) -> mpeg2video (native))
Stream #0:1 -> #0:1 (ac3 (native) -> ac3 (native))
Press [q] to stop, [?] for help
Output #0, mpegts, to 'F:\ProgramData\hms\HmsTemp\Test_7043dfbc1c490721b59cf49971554220.ts':
Metadata:
title           : Warrior 01x01 (The Itchy Onion) - EniaHD
encoder         : Lavf58.20.100
Stream #0:0: Video: mpeg2video (Main), yuv420p, 1280x720 [SAR 1:1 DAR 16:9], q=2-31, 200 kb/s, 23.98 fps, 90k tbn, 23.98 tbc (default)
Metadata:
BPS-eng         : 2487872
DURATION-eng    : 01:00:53.650000000
NUMBER_OF_FRAMES-eng: 87600
NUMBER_OF_BYTES-eng: 1136227094
_STATISTICS_WRITING_APP-eng: mkvmerge v33.1.0 ('Primrose') 64-bit
_STATISTICS_WRITING_DATE_UTC-eng: 2019-04-18 04:28:13
_STATISTICS_TAGS-eng: BPS DURATION NUMBER_OF_FRAMES NUMBER_OF_BYTES
encoder         : Lavc58.35.100 mpeg2video
Side data:
cpb: bitrate max/min/avg: 0/0/200000 buffer size: 0 vbv_delay: -1
Stream #0:1(rus): Audio: ac3, 48000 Hz, 5.1, fltp, 448 kb/s (default)
Metadata:
title           : Cyrillica
BPS-eng         : 640000
DURATION-eng    : 01:00:53.632000000
NUMBER_OF_FRAMES-eng: 114176
NUMBER_OF_BYTES-eng: 292290560
_STATISTICS_WRITING_APP-eng: mkvmerge v33.1.0 ('Primrose') 64-bit
_STATISTICS_WRITING_DATE_UTC-eng: 2019-04-18 04:28:13
_STATISTICS_TAGS-eng: BPS DURATION NUMBER_OF_FRAMES NUMBER_OF_BYTES
encoder         : Lavc58.35.100 ac3

...
[matroska,webm @ 024b3c80] Read error

Файл полученный тестовым траснкодом воспроизводится от начала и до конца

WendyH пишет:

После этого и проверки, что временный видео создаётся, проверить настройки устройства в программе. Если пишет, что выбранный файл не поддерживается, то это значит, что в настройках устройства неправильно настроены параметры выходного файла при транскодировании (видео и аудио кодек, контейнер и проч).

Проблема появилась на ровном месте, в настройках точно ничего не менял, стоит настроенный профиль DLNA + Fork Player

LG 42LA644V/Philips 32PFL3605/60

393

Re: Проблемы с подкастами

Oompaloomp пишет:

Проблема появилась на ровном месте, в настройках точно ничего не менял, стоит настроенный профиль DLNA + Fork Player

Т.е. поменять в настройках устройства параметры транскодирования, хотя бы чисто для эксперимента, нет желания?

Sony Bravia KDL-32CX523

394

Re: Проблемы с подкастами

WendyH пишет:

Т.е. поменять в настройках устройства параметры транскодирования, хотя бы чисто для эксперимента, нет желания?

У меня руки опускаются уже просто, я перепробовал всё что возможно, это делал переделывал 100500 раз.
Сегодня целый день сижу перебираю настройки, профили, переустанавливаю...

LG 42LA644V/Philips 32PFL3605/60

395 (2019.12.18 20:24:31 отредактировано Oompaloomp)

Re: Проблемы с подкастами

Сменил профиль у подкаста с Фильмы (Оптимальный) - универсальный на Фильмы (Оптимальный), на вкладке о транскоде пусто, хотя транскод идёт - видно в свойствах процесса hmsmpeg.exe, это описывал в теме об обрыве трансляции
Пытаюсь запустить сериал See, во временной папке появляются все серии сериала, но тк не вижу инфо о передаче на устройство через некоторое время передача прерывается, но транскод не отваливается как на профиле Фильмы (Оптимальный) - универсальный

LG 42LA644V/Philips 32PFL3605/60

396

Re: Проблемы с подкастами

UPD!
Восстановил работу подкаста Torrent Rover.
Полностью очистил папку с настройками - c:\ProgramData\Home Media Server, восстановил настройки из бекапа версии на тот момент времени нормальной работ hms.
Причину установить так и не удалось.

LG 42LA644V/Philips 32PFL3605/60