1

Тема: Sony KD-X8509C/Sony KD-XE8596/Sony KD-XE8096/KD-XE9005

Sony KD-X8509C

Профиль обновлён и протестирован, огромная благодарность пользователю Alexans

Готовый файл настроек, построена таблица файлов.
Локально все показывает без транскода, настроено IPTV и интернет радио.

Профиль рассчитан на передачу потока без участия транскода, то есть в качестве источника, может выступать: ноутбук, нетбук, неттоп. В общем не требователен к железу, если не изменять качество выходного потока.

Подробнее

+ открыть спойлер

- Сделан под сжатие HEVC/ формат TS
- Добавлена возможность просмотра локального видео 60 fps (1080p и 720p)
- Более быстрый запуск видео, за счёт уменьшения порций получения потока
- Добавлена перемотка на локальных файлах и подкастах (как перемещение по времени, так и стандартная перемотка)
Возможны задержки (после перемотки, несколько секунд), рекомендуется проводное подключение) или перемотка, через папку транскодирования/интервал 1 минута
- Многоканальный звук реализован, через AC3 (7.1) или DTS
Гарантированная работа всех функций, только на прилагаемом профиле и с настройками подкастов из шапки

Подробнее по 4K

Как смотреть:

+ открыть спойлер

1. Через локальную сеть, с ПК

2. С использованием встроенного в HMS торрент клиента (как показано в скриншотах)

Обязательно пробросьте диапазон портов 6881-6889 в роутере
Нужно создать два правила для TCP и UDP, в разделе безопасность (Firewall)/Пункт/Правила трансляции сетевых адресов (NAT)
Описание: HMS Tor
Интерфейс: Вам нужна внешняя сеть ISP
Протокол: TCP (первое правило), UDP (второе правило)
Порты (TCP/UDP): (Диапазон) (6881-6889)
Перенаправление: IP адрес своего компьютера
Или если роутер не позволяет пробрасывать диапазоны, то первый порт 6881 и последний 6889
Добавиться строчка: Новый порт назначения: 6881 и 6889
На примере роутера (Zyxel Keenetic Giga 2)

3. С использованием Ace Stream, через подкаст Torrent Rover

FAQ по 4K

+ открыть спойлер

1. Ограничения по битрейту выходного потока
- Для проводного соединения 100 mbps (предпочтительное соединение)
- Для WiFi 802.11n 135 mbps (в идеальных условиях: не захламлён канал, нет препятствий, включён режим в роутере (Wi-Fi Multimedia (WMM), или Wireless Multimedia Extensions (WME))
Но есть небольшой нюанс, почему я советую проводное соединение, у WiFi плохая стартовая стабильность и резкие проседания во время передачи потока, что приводит к случаю, когда ТВ не дожидается потока и выдаёт ошибку
- Для WiFi IEEE 802.11ac (нет ограничений, если роутер соответствует данной спецификации и у вас выход в сеть, более 100 Мбит/с)

2. Проседания потока при передачи, через stream torrent protocol (STP)

- Зависит от наличия сидов/пиров при торрент просмотре
- Качества сети и пиковой нагрузки
- Мощности роутера

3. Профиль выдаёт полностью исходный файл (качество/битрейт/формат и т.д.)

Так же привожу пример настроек подкастов

Все подкасты ищем в разделе Подкасты

Как поставить индивидуальные профили транскода на подкаст, можно прочитать в faq (вверху сайта), вкладка установка своего профиля транскодирования для конкретного подкаста.

ВНИМАНИЕ!!!!
Не забывайте в настройках всех подкастов, очищать строчку MIME тип


Настройки для версии

+ открыть спойлер

Moonwalk - Фильмы (оптимальный)
Kodik.top - Фильмы (оптимальный)
Getmovie.cc - Фильмы (оптимальный)
Ex-fs.net - Фильмы (оптимальный)
Edem.TV - Фильмы (оптимальный)
Fox-Fan.ru - Фильмы (оптимальный)
Filmix.net - Фильмы (оптимальный)
Kinokong.net - Фильмы (оптимальный)
HDSerials.TV - Фильмы (оптимальный)
HDKinoTeatr.com - Фильмы (оптимальный)
Seasonvar.ru - Фильмы (оптимальный)
Tree.TV - Фильмы (оптимальный)
LostFilm - Фильмы (оптимальный)
Интернет радио премиум AudioAddict - Всё уже настроено добавьте и слушайте
Важно использовать именно приведённые профили транскодирования, для гарантированной работоспособности

Как активировать Nvidia Encoder

+ открыть спойлер

1. Устанавливаем профиль
2. Читаем и воплощаем совет d1mas
https://hms.lostcut.net/viewtopic.php?id=123
3. Только для карт Nvidia, проверить список поддерживаемых карт можно здесь
https://developer.nvidia.com/cuda-gpus (смотрим desktop серию GeForce)

Пример настроек подкастов для версии (Torrent телевидение)

+ открыть спойлер

TTV-VIP_playlist_(real) - AceStream (Видео без изменения)
Tuchka TV - AceStream (Видео без изменения)
TTV Autoplaylist - AceStream (Видео без изменения)
IPTV playlists - AceStream (Видео без изменения)
Torrent Rover - AceStream (Видео без изменения)

Мини FAQ, по настройке Torrent телевидения

+ открыть спойлер

1. Устанавливаем Ace Stream (при установке рекомендуется выбирать HDD, а не SSD)
2. Прописываем порт (8621) в роутере
Нужно создать два правила для TCP и UDP, в разделе безопасность (Firewall)/Пункт/Правила трансляции сетевых адресов (NAT)

+ открыть спойлер

Описание: Ace Stream
Интерфейс: Вам нужна внешняя сеть ISP
Протокол: TCP (первое правило), UDP (второе правило)
Порты (TCP/UDP): (Один порт) (8621)
Перенаправление: IP адрес своего компьютера
Новый порт назначения: 8621
На примере роутера (Zyxel Keenetic Giga 2)

3. Добавить в исключения в брандмауэр Windows (или в другой, сторонний): 
Ace Player HD (ace_player.exe) и Ace Engine (ace_engine.exe).
Пропустить, если не используется брандмауэр
4. В настройках Ace Stream (правой кнопкой мыши, в области уведомлений, на значке ace/опции)
Буфер VOD :50/Live 200 (при сети более 50 Mb/s) или значения больше, если скорость сети, ниже
5. Редактируем файл System32\drivers\etc \hosts (открываем блокнотом)

+ открыть спойлер

Прописываем, после строчки ( #    ::1             localhost)
#       127.0.0.1 medias.kadam.ru
#       127.0.0.1 o3fy684faxh8o.ru
#       127.0.0.1 wac.A164.edgecastcdn.net
#       127.0.0.1 wac.a164.taucdn.net
#       127.0.0.1 cdn.onedmp.com
#       127.0.0.1 ua2cdn.admixer.net
Соблюдая правила синтаксиса, то есть пробелы и т.д.

6. Включаем Ace Player, в меню Медиа/Открыть Ace Stream Content ID/ вставить

ea4702f84cd5b95b13159d12d0785ab31dc30e1e

/указываем пол и возраст
7. Скачиваем ACESTREAM.cfg и добавляем его в hms
https://hms.lostcut.net/misc.php?action … download=1

Как установить :
HMS - Настройки - устройства - своё устройство - настройки - внизу загрузить - скачанный профиль

Обязательно установить VLC или обновить установленный

Мини FAQ

+ открыть спойлер

1.Настройку осуществляйте именно индивидуального устройства, а не по-умолчанию
2.Удалите ваше текущее устройство (настройки hms/устройства/удалить/перезапустите hms выгрузив его полностью)
3.Добавьте устройство по новой (настройки hms/устройства/поиск/поиск/отметить галочкой нужное устройство)
4.Настройте устройство загрузив в него скачанный профиль (настройки hms/устройства/молоток с ключом на самом устройстве/загрузить внизу/ok)
5.Настройте индивидуальные профили для подкастов (на подкасте правой кнопкой мыши/изменить названия-настройки/выбрать профиль транскодирование) (если надо загрузите дополнительные профили транскода)
6.Перезапустите hms выгрузив его полностью
7.IPTV добавляется прямым потоком и появляется в папке интернет телевидение
8.Интернет радио добавляется прямым потоком и появляется в папке интернет радио

Задавайте вопросы не стесняйтесь, по возможности буду отвечать.
Также оставляйте комментарии, со своими настройками подкастов, которых нет в списке.
Тем самым вы помогаете другим.

Бонус
Добавление отметки "просмотренное видео"

Важно!!!
Скриншоты настроек программы (hms)

+ открыть спойлер

Как правильно установить готовый профиль устройства в HMS

Прикреплённые файлы сообщения

Sony KD-X8509C ver.4.cfg 45.67 kb, скачивалось 248 раз, начиная с 2017.12.12

WD TV LS+Sony KDLS5600/Samsung UEF5400/Sony PS 3/Yamaha RX-V379/hms 2.33
Кладовая HMS (список полезных ссылок и инструкций)
https://hms.lostcut.net/misc.php?action=pun_attachment&item=2914&download=0
Временно отсутствую
Спасибо сказали: kletska1

2

Re: Sony KD-X8509C/Sony KD-XE8596/Sony KD-XE8096/KD-XE9005

Профиль обновлён, была допущена ошибка в спешке, просьба перекачать ;)

WD TV LS+Sony KDLS5600/Samsung UEF5400/Sony PS 3/Yamaha RX-V379/hms 2.33
Кладовая HMS (список полезных ссылок и инструкций)
https://hms.lostcut.net/misc.php?action=pun_attachment&item=2914&download=0
Временно отсутствую

3 (2017.06.18 22:43:22 отредактировано kletska)

Re: Sony KD-X8509C/Sony KD-XE8596/Sony KD-XE8096/KD-XE9005

Спасибо за профиль, использую для KD-49X8307C. Работает лучше, чем https://hms.lostcut.net/viewtopic.php?id=254, может стоит объединить темы? Правда TorrentRover и интернет телевидение так и не завелось.
Правда отказывается показывать некоторые фильмы, например этот:

+ открыть спойлер

General
Complete name                  : F:\Кино\Afera.pod.prikrytiem.2016.D.BDRip.2.18Gb_ExKinoRay_by_Twi7ter.avi
Format                         : AVI
Format/Info                    : Audio Video Interleave
Format profile                 : OpenDML
File size                      : 2.13 GiB
Duration                       : 2 h 7 min
Overall bit rate               : 2 394 kb/s
Movie name                     : Afera.pod.prikrytiem.2016.A.BDRip.2.18Gb_ExKinoRay_by_Twi7ter
Director                       : Twi7ter
Genre                          : Thriller/Drama/Crime
Writing application            : VirtualDubMod 1.5.10.2 (build 2542/release)
Writing library                : VirtualDubMod build 2542/release
Original source form/Name      : Movie

Video
ID                             : 0
Format                         : MPEG-4 Visual
Format profile                 : Advanced Simple@L5
Format settings, BVOP          : 2
Format settings, QPel          : No
Format settings, GMC           : No warppoints
Format settings, Matrix        : Custom
Codec ID                       : XVID
Codec ID/Hint                  : XviD
Duration                       : 2 h 7 min
Bit rate                       : 1 999 kb/s
Width                          : 720 pixels
Height                         : 304 pixels
Display aspect ratio           : 2.35:1
Frame rate                     : 23.976 (24000/1001) FPS
Color space                    : YUV
Chroma subsampling             : 4:2:0
Bit depth                      : 8 bits
Scan type                      : Progressive
Compression mode               : Lossy
Bits/(Pixel*Frame)             : 0.381
Stream size                    : 1.78 GiB (83%)
Writing library                : XviD 73

Audio
ID                             : 1
Format                         : AC-3
Format/Info                    : Audio Coding 3
Mode extension                 : CM (complete main)
Format settings, Endianness    : Big
Codec ID                       : 2000
Duration                       : 2 h 7 min
Bit rate mode                  : Constant
Bit rate                       : 384 kb/s
Channel(s)                     : 6 channels
Channel positions              : Front: L C R, Side: L R, LFE
Sampling rate                  : 48.0 kHz
Frame rate                     : 31.250 FPS (1536 spf)
Bit depth                      : 16 bits
Compression mode               : Lossy
Stream size                    : 349 MiB (16%)
Alignment                      : Split accross interleaves
Interleave, duration           : 42  ms (1.00 video frame)
Interleave, preload duration   : 500  ms

Вот что пишет тестовое транскодирование:
https://hms.lostcut.net/misc.php?action … tr=117t355

Прикреплённые файлы сообщения

Безымянный.jpg 231.6 kb, скачивалось 113 раз, начиная с 2017.06.18

4

Re: Sony KD-X8509C/Sony KD-XE8596/Sony KD-XE8096/KD-XE9005

Добрый вечер! Помогите с выбором профиля для KD-55XE8596. Хочу смотреть фильмы 4К хранящиеся на жестком диске ПК, я так понимаю лучше без транскодирования. Пробовал настроить самостоятельно, не получается...

5

Re: Sony KD-X8509C/Sony KD-XE8596/Sony KD-XE8096/KD-XE9005

1857404 пишет:

Добрый вечер! Помогите с выбором профиля для KD-55XE8596. Хочу смотреть фильмы 4К хранящиеся на жестком диске ПК, я так понимаю лучше без транскодирования. Пробовал настроить самостоятельно, не получается...

Пока пробуйте вот эти, приеду сделаю индивидуальный под устройство
https://hms.lostcut.net/viewtopic.php?id=355
https://hms.lostcut.net/viewtopic.php?id=254

WD TV LS+Sony KDLS5600/Samsung UEF5400/Sony PS 3/Yamaha RX-V379/hms 2.33
Кладовая HMS (список полезных ссылок и инструкций)
https://hms.lostcut.net/misc.php?action=pun_attachment&item=2914&download=0
Временно отсутствую

6

Re: Sony KD-X8509C/Sony KD-XE8596/Sony KD-XE8096/KD-XE9005

Big Dog пишет:

Пока пробуйте вот эти, приеду сделаю индивидуальный под устройство
https://hms.lostcut.net/viewtopic.php?id=355
https://hms.lostcut.net/viewtopic.php?id=254

Спасибо за отзывчивость!
Первый профиль завел "шарманку", второй нет.
После того как немного перемотал, фильм начал идти рывками... ТВ к сети подключен проводом.
Подожду от Вас индивидуальный профиль. Спасибо!

7

Re: Sony KD-X8509C/Sony KD-XE8596/Sony KD-XE8096/KD-XE9005

Sony KD-XE8596

Профиль обновлён и протестирован, огромная благодарность пользователю 1857404

Готовый файл настроек, построена таблица файлов.
Локально все показывает без транскода, настроено IPTV и интернет радио.

Профиль рассчитан на передачу потока без участия транскода, то есть в качестве источника, может выступать: ноутбук, нетбук, неттоп. В общем не требователен к железу, если не изменять качество выходного потока.

Подробнее

+ открыть спойлер

- Сделан под сжатие HEVC/ формат TS
- Добавлена возможность просмотра локального видео 60 fps (1080p и 720p)
- Более быстрый запуск видео, за счёт уменьшения порций получения потока
- Добавлена перемотка на локальных файлах и подкастах (как перемещение по времени, так и стандартная перемотка)
Возможны задержки (после перемотки, несколько секунд), рекомендуется проводное подключение) или перемотка, через папку транскодирования/интервал 1 минута
- Многоканальный звук реализован, через AC3 (7.1) или DTS
Гарантированная работа всех функций, только на прилагаемом профиле и с настройками подкастов из шапки

Подробнее по 4K

Как смотреть:

+ открыть спойлер

1. Через локальную сеть, с ПК

2. С использованием встроенного в HMS торрент клиента (как показано в скриншотах)

Обязательно пробросьте диапазон портов 6881-6889 в роутере
Нужно создать два правила для TCP и UDP, в разделе безопасность (Firewall)/Пункт/Правила трансляции сетевых адресов (NAT)
Описание: HMS Tor
Интерфейс: Вам нужна внешняя сеть ISP
Протокол: TCP (первое правило), UDP (второе правило)
Порты (TCP/UDP): (Диапазон) (6881-6889)
Перенаправление: IP адрес своего компьютера
Или если роутер не позволяет пробрасывать диапазоны, то первый порт 6881 и последний 6889
Добавиться строчка: Новый порт назначения: 6881 и 6889
На примере роутера (Zyxel Keenetic Giga 2)

3. С использованием Ace Stream, через подкаст Torrent Rover

FAQ по 4K

+ открыть спойлер

1. Ограничения по битрейту выходного потока
- Для проводного соединения 100 mbps (предпочтительное соединение)
- Для WiFi 802.11n 135 mbps (в идеальных условиях: не захламлён канал, нет препятствий, включён режим в роутере (Wi-Fi Multimedia (WMM), или Wireless Multimedia Extensions (WME))
Но есть небольшой нюанс, почему я советую проводное соединение, у WiFi плохая стартовая стабильность и резкие проседания во время передачи потока, что приводит к случаю, когда ТВ не дожидается потока и выдаёт ошибку
- Для WiFi IEEE 802.11ac (нет ограничений, если роутер соответствует данной спецификации и у вас выход в сеть, более 100 Мбит/с)

2. Проседания потока при передачи, через stream torrent protocol (STP)

- Зависит от наличия сидов/пиров при торрент просмотре
- Качества сети и пиковой нагрузки
- Мощности роутера

3. Профиль выдаёт полностью исходный файл (качество/битрейт/формат и т.д.)

Так же привожу пример настроек подкастов

Все подкасты ищем в разделе Подкасты

Как поставить индивидуальные профили транскода на подкаст, можно прочитать в faq (вверху сайта), вкладка установка своего профиля транскодирования для конкретного подкаста.

ВНИМАНИЕ!!!!
Не забывайте в настройках всех подкастов, очищать строчку MIME тип


Настройки для версии

+ открыть спойлер

Moonwalk - Фильмы (оптимальный)
Kodik.top - Фильмы (оптимальный)
Getmovie.cc - Фильмы (оптимальный)
Ex-fs.net - Фильмы (оптимальный)
Edem.TV - Фильмы (оптимальный)
Fox-Fan.ru - Фильмы (оптимальный)
Filmix.net - Фильмы (оптимальный)
Kinokong.net - Фильмы (оптимальный)
HDSerials.TV - Фильмы (оптимальный)
HDKinoTeatr.com - Фильмы (оптимальный)
Seasonvar.ru - Фильмы (оптимальный)
Tree.TV - Фильмы (оптимальный)
Интернет радио премиум AudioAddict - Всё уже настроено добавьте и слушайте
Важно использовать именно приведённые профили транскодирования, для гарантированной работоспособности

Как активировать Nvidia Encoder

+ открыть спойлер

1. Устанавливаем профиль
2. Читаем и воплощаем совет d1mas
https://hms.lostcut.net/viewtopic.php?id=123
3. Только для карт Nvidia, проверить список поддерживаемых карт можно здесь
https://developer.nvidia.com/cuda-gpus (смотрим desktop серию GeForce)

Пример настроек подкастов для версии (Torrent телевидение)

+ открыть спойлер

TTV-VIP_playlist_(real) - AceStream (Видео без изменения)
Tuchka TV - AceStream (Видео без изменения)
TTV Autoplaylist - AceStream (Видео без изменения)
IPTV playlists - AceStream (Видео без изменения)
Torrent Rover - AceStream (Видео без изменения)

Мини FAQ, по настройке Torrent телевидения

+ открыть спойлер

1. Устанавливаем Ace Stream (при установке рекомендуется выбирать HDD, а не SSD)
2. Прописываем порт (8621) в роутере
Нужно создать два правила для TCP и UDP, в разделе безопасность (Firewall)/Пункт/Правила трансляции сетевых адресов (NAT)

+ открыть спойлер

Описание: Ace Stream
Интерфейс: Вам нужна внешняя сеть ISP
Протокол: TCP (первое правило), UDP (второе правило)
Порты (TCP/UDP): (Один порт) (8621)
Перенаправление: IP адрес своего компьютера
Новый порт назначения: 8621
На примере роутера (Zyxel Keenetic Giga 2)

3. Добавить в исключения в брандмауэр Windows (или в другой, сторонний): 
Ace Player HD (ace_player.exe) и Ace Engine (ace_engine.exe).
Пропустить, если не используется брандмауэр
4. В настройках Ace Stream (правой кнопкой мыши, в области уведомлений, на значке ace/опции)
Буфер VOD :50/Live 200 (при сети более 50 Mb/s) или значения больше, если скорость сети, ниже
5. Редактируем файл System32\drivers\etc \hosts (открываем блокнотом)

+ открыть спойлер

Прописываем, после строчки ( #    ::1             localhost)
#       127.0.0.1 medias.kadam.ru
#       127.0.0.1 o3fy684faxh8o.ru
#       127.0.0.1 wac.A164.edgecastcdn.net
#       127.0.0.1 wac.a164.taucdn.net
#       127.0.0.1 cdn.onedmp.com
#       127.0.0.1 ua2cdn.admixer.net
Соблюдая правила синтаксиса, то есть пробелы и т.д.

6. Включаем Ace Player, в меню Медиа/Открыть Ace Stream Content ID/ вставить

ea4702f84cd5b95b13159d12d0785ab31dc30e1e

/указываем пол и возраст
7. Скачиваем ACESTREAM.cfg и добавляем его в hms
https://hms.lostcut.net/misc.php?action … download=1

Как установить :
HMS - Настройки - устройства - своё устройство - настройки - внизу загрузить - скачанный профиль

Обязательно установить VLC или обновить установленный

Мини FAQ

+ открыть спойлер

1.Настройку осуществляйте именно индивидуального устройства, а не по-умолчанию
2.Удалите ваше текущее устройство (настройки hms/устройства/удалить/перезапустите hms выгрузив его полностью)
3.Добавьте устройство по новой (настройки hms/устройства/поиск/поиск/отметить галочкой нужное устройство)
4.Настройте устройство загрузив в него скачанный профиль (настройки hms/устройства/молоток с ключом на самом устройстве/загрузить внизу/ok)
5.Настройте индивидуальные профили для подкастов (на подкасте правой кнопкой мыши/изменить названия-настройки/выбрать профиль транскодирование) (если надо загрузите дополнительные профили транскода)
6.Перезапустите hms выгрузив его полностью
7.IPTV добавляется прямым потоком и появляется в папке интернет телевидение
8.Интернет радио добавляется прямым потоком и появляется в папке интернет радио

Задавайте вопросы не стесняйтесь, по возможности буду отвечать.
Также оставляйте комментарии, со своими настройками подкастов, которых нет в списке.
Тем самым вы помогаете другим.

Бонус
Добавление отметки "просмотренное видео"

Важно!!!
Скриншоты настроек программы (hms)

+ открыть спойлер

Как правильно установить готовый профиль устройства в HMS

Прикреплённые файлы сообщения

Sony KD-XE8596 ver.3.cfg 45.72 kb, скачивалось 194 раза, начиная с 2017.12.12

WD TV LS+Sony KDLS5600/Samsung UEF5400/Sony PS 3/Yamaha RX-V379/hms 2.33
Кладовая HMS (список полезных ссылок и инструкций)
https://hms.lostcut.net/misc.php?action=pun_attachment&item=2914&download=0
Временно отсутствую

8

Re: Sony KD-X8509C/Sony KD-XE8596/Sony KD-XE8096/KD-XE9005

Big Dog пишет:

Sony KD-XE8596

Профиль требует тестирования, не забываем писать о результатах

Добрый день!
Попробовал воспроизвести два фильма 4К. Оба тормозят, т.е. 4-5 сек показывает, потом пару секунд подгружается и опять 4-5 сек показывает.

Данные фильма1

+ открыть спойлер

Общее
Уникальный идентификатор                 : 203532817188524460086917950969612376380 (0x991EFEA68D67101B9EFC159F8810993C)
Полное имя                               : C:\Users\Михаил\Videos\Трансформеры ПК\Transformers.The.Last.Knight.2017.BDREMUX.2160p.4K.UltraHD.HEVC.HDR.ExKinoRay.mkv
Формат                                   : Matroska
Версия формата                           : Version 4 / Version 2
Размер файла                             : 73,2 Гбайт
Продолжительность                        : 2 ч. 34 м.
Режим общего битрейта                    : Переменный
Общий поток                              : 67,7 Мбит/сек
Дата кодирования                         : UTC 2017-10-21 00:00:00
Программа кодирования                    : mkvmerge v17.0.0 ('Be Ur Friend') 64-bit
Библиотека кодирования                   : libebml v1.3.5 + libmatroska v1.4.8

Видео
Идентификатор                            : 1
Формат                                   : HEVC
Формат/Информация                        : High Efficiency Video Coding
Профиль формата                          : Main 10@L5.1@High
Идентификатор кодека                     : V_MPEGH/ISO/HEVC
Продолжительность                        : 2 ч. 34 м.
Битрейт                                  : 62,1 Мбит/сек
Ширина                                   : 3840 пикселей
Высота                                   : 2160 пикселей
Соотношение сторон                       : 16:9
Режим частоты кадров                     : Постоянный
Частота кадров                           : 23,976 (24000/1001) кадра/сек
Цветовое пространство                    : YUV
Субдискретизация насыщенности            : 4:2:0 (Type 2)
Битовая глубина                          : 10 бит
Бит/(Пиксели*Кадры)                      : 0.312
Размер потока                            : 67,1 Гбайт (92%)
Язык                                     : English
Default                                  : Да
Forced                                   : Нет
Цветовой диапазон                        : Limited
Основные цвета                           : BT.2020
Характеристики трансфера                 : PQ
Коэффициенты матрицы                     : BT.2020 non-constant
MasteringDisplay_ColorPrimaries          : R: x=0.680000 y=0.320000, G: x=0.265000 y=0.690000, B: x=0.150000 y=0.060000, White point: x=0.312700 y=0.329000
MasteringDisplay_Luminance               : min: 0.0001 cd/m2, max: 1000.0000 cd/m2

Аудио #1
Идентификатор                            : 2
Формат                                   : AC-3
Формат/Информация                        : Audio Coding 3
Идентификатор кодека                     : A_AC3
Продолжительность                        : 2 ч. 34 м.
Вид битрейта                             : Постоянный
Битрейт                                  : 640 Кбит/сек
Каналы                                   : 6 каналов
Расположение каналов                     : Front: L C R, Side: L R, LFE
Частота                                  : 48,0 КГц
Частота кадров                           : 31,250 кадров/сек (1536 SPF)
Битовая глубина                          : 16 бит
Метод сжатия                             : С потерями
Размер потока                            : 708 Мбайт (1%)
Заголовок                                : Dub [License]
Язык                                     : Russian
ServiceKind/String                       : Complete Main
Default                                  : Да
Forced                                   : Нет

Аудио #2
Идентификатор                            : 3
Формат                                   : TrueHD
Профиль формата                          : TrueHD+Atmos / TrueHD
Идентификатор кодека                     : A_TRUEHD
Продолжительность                        : 2 ч. 34 м.
Вид битрейта                             : Переменный
Битрейт                                  : 4298 Кбит/сек
Максимальный битрейт                     : 6528 Кбит/сек
Каналы                                   : Object Based / 8 каналов
Расположение каналов                     : Object Based / Front: L C R, Side: L R, Back: L R, LFE
Частота                                  :  / 48,0 КГц
Частота кадров                           : 1200,000 кадров/сек (40 SPF)
Метод сжатия                             : Без потерь
Размер потока                            : 4,64 Гбайт (6%)
Заголовок                                : Original
Язык                                     : English
Default                                  : Нет
Forced                                   : Нет

Аудио #3
Идентификатор                            : 4
Формат                                   : AC-3
Формат/Информация                        : Audio Coding 3
Идентификатор кодека                     : A_AC3
Продолжительность                        : 2 ч. 34 м.
Вид битрейта                             : Постоянный
Битрейт                                  : 640 Кбит/сек
Каналы                                   : 6 каналов
Расположение каналов                     : Front: L C R, Side: L R, LFE
Частота                                  : 48,0 КГц
Частота кадров                           : 31,250 кадров/сек (1536 SPF)
Битовая глубина                          : 16 бит
Метод сжатия                             : С потерями
Размер потока                            : 708 Мбайт (1%)
Язык                                     : English
ServiceKind/String                       : Complete Main
Default                                  : Нет
Forced                                   : Нет

Текст #1
Идентификатор                            : 5
Формат                                   : UTF-8
Идентификатор кодека                     : S_TEXT/UTF8
Идентификатор кодека/Информация          : UTF-8 Plain Text
Продолжительность                        : 2 ч. 33 м.
Битрейт                                  : 0 бит/сек
ElementCount                             : 29
Размер потока                            : 1,03 Кбайт (0%)
Заголовок                                : Forced
Язык                                     : Russian
Default                                  : Да
Forced                                   : Нет

Текст #2
Идентификатор                            : 6
Формат                                   : UTF-8
Идентификатор кодека                     : S_TEXT/UTF8
Идентификатор кодека/Информация          : UTF-8 Plain Text
Продолжительность                        : 2 ч. 33 м.
Битрейт                                  : 96 бит/сек
ElementCount                             : 2315
Размер потока                            : 109 Кбайт (0%)
Заголовок                                : Full
Язык                                     : Russian
Default                                  : Нет
Forced                                   : Нет

Текст #3
Идентификатор                            : 7
Формат                                   : UTF-8
Идентификатор кодека                     : S_TEXT/UTF8
Идентификатор кодека/Информация          : UTF-8 Plain Text
Продолжительность                        : 2 ч. 25 м.
Битрейт                                  : 73 бит/сек
ElementCount                             : 2617
Размер потока                            : 78,3 Кбайт (0%)
Заголовок                                : SDH
Язык                                     : English
Default                                  : Нет
Forced                                   : Нет

Меню
00:00:00.000                             : en:Chapter 01
00:06:36.104                             : en:Chapter 02
00:14:03.468                             : en:Chapter 03
00:21:45.763                             : en:Chapter 04
00:27:53.255                             : en:Chapter 05
00:33:53.907                             : en:Chapter 06
00:40:08.906                             : en:Chapter 07
00:46:58.941                             : en:Chapter 08
00:53:25.786                             : en:Chapter 09
01:02:02.928                             : en:Chapter 10
01:08:47.081                             : en:Chapter 11
01:14:37.223                             : en:Chapter 12
01:20:10.180                             : en:Chapter 13
01:29:13.390                             : en:Chapter 14
01:37:59.499                             : en:Chapter 15
01:44:57.583                             : en:Chapter 16
01:51:15.502                             : en:Chapter 17
01:57:59.447                             : en:Chapter 18
02:06:09.729                             : en:Chapter 19
02:10:54.096                             : en:Chapter 20
02:16:01.153                             : en:Chapter 21
02:21:42.619                             : en:Chapter 22
02:25:17.292                             : en:Chapter 23

Данные фильма 2:

+ открыть спойлер

Общее
Уникальный идентификатор                 : 233373516463612394227743508449464887698 (0xAF921AB73BC8FD3A8AAFBA5C65C72992)
Полное имя                               : C:\Users\Михаил\Videos\Чудо на Гудзоне\Чудо на Гудзоне.2016.UHD.BluRay.Remux.2160p.mkv
Формат                                   : Matroska
Версия формата                           : Version 4 / Version 2
Размер файла                             : 46,4 Гбайт
Продолжительность                        : 1 ч. 35 м.
Общий поток                              : 69,3 Мбит/сек
Дата кодирования                         : UTC 2017-10-22 07:27:14
Программа кодирования                    : mkvmerge v17.0.0 ('Be Ur Friend') 64-bit
Библиотека кодирования                   : libebml v1.3.5 + libmatroska v1.4.8
Attachments                              : poster.jpg

Видео
Идентификатор                            : 1
Формат                                   : HEVC
Формат/Информация                        : High Efficiency Video Coding
Профиль формата                          : Main 10@L5.1@High
Идентификатор кодека                     : V_MPEGH/ISO/HEVC
Продолжительность                        : 1 ч. 35 м.
Битрейт                                  : 60,0 Мбит/сек
Ширина                                   : 3840 пикселей
Высота                                   : 2160 пикселей
Соотношение сторон                       : 16:9
Режим частоты кадров                     : Постоянный
Частота кадров                           : 23,976 (24000/1001) кадра/сек
Цветовое пространство                    : YUV
Субдискретизация насыщенности            : 4:2:0 (Type 2)
Битовая глубина                          : 10 бит
Бит/(Пиксели*Кадры)                      : 0.302
Размер потока                            : 40,2 Гбайт (87%)
Библиотека кодирования                   : ATEME Titan File 3.7.8 (4.7.8.0)
Default                                  : Да
Forced                                   : Нет
Цветовой диапазон                        : Limited
Основные цвета                           : BT.2020
Характеристики трансфера                 : PQ
Коэффициенты матрицы                     : BT.2020 non-constant
MasteringDisplay_ColorPrimaries          : R: x=0.680000 y=0.320000, G: x=0.265000 y=0.690000, B: x=0.150000 y=0.060000, White point: x=0.312700 y=0.329000
MasteringDisplay_Luminance               : min: 0.0050 cd/m2, max: 4000.0000 cd/m2
MaxCLL                                   : 4000 cd/m2
MaxFALL                                  : 290 cd/m2

Аудио #1
Идентификатор                            : 2
Формат                                   : AC-3
Формат/Информация                        : Audio Coding 3
Идентификатор кодека                     : A_AC3
Продолжительность                        : 1 ч. 35 м.
Вид битрейта                             : Постоянный
Битрейт                                  : 448 Кбит/сек
Каналы                                   : 6 каналов
Расположение каналов                     : Front: L C R, Side: L R, LFE
Частота                                  : 48,0 КГц
Частота кадров                           : 31,250 кадров/сек (1536 SPF)
Битовая глубина                          : 16 бит
Метод сжатия                             : С потерями
Размер потока                            : 307 Мбайт (1%)
Заголовок                                : Dub, Blu-Ray
Язык                                     : Russian
ServiceKind/String                       : Complete Main
Default                                  : Да
Forced                                   : Нет

Аудио #2
Идентификатор                            : 3
Формат                                   : DTS
Формат/Информация                        : Digital Theater Systems
Профиль формата                          : MA / Core
Идентификатор кодека                     : A_DTS
Продолжительность                        : 1 ч. 35 м.
Вид битрейта                             : Переменный / Постоянный
Битрейт                                  : 4437 Кбит/сек / 1509 Кбит/сек
Каналы                                   : 8 каналов / 6 каналов
Расположение каналов                     : Front: L C R, Side: L R, Back: L R, LFE / Front: L C R, Side: L R, LFE
Частота                                  : 48,0 КГц
Частота кадров                           : 93,750 кадра/сек (512 SPF)
Битовая глубина                          : 24 бит
Метод сжатия                             : Без потерь / Lossy
Размер потока                            : 2,97 Гбайт (6%)
Заголовок                                : Ю. Сербин
Язык                                     : Russian
Default                                  : Нет
Forced                                   : Нет

Аудио #3
Идентификатор                            : 4
Формат                                   : DTS
Формат/Информация                        : Digital Theater Systems
Профиль формата                          : MA / Core
Идентификатор кодека                     : A_DTS
Продолжительность                        : 1 ч. 35 м.
Вид битрейта                             : Переменный / Постоянный
Битрейт                                  : 4399 Кбит/сек / 1509 Кбит/сек
Каналы                                   : 8 каналов / 6 каналов
Расположение каналов                     : Front: L C R, Side: L R, Back: L R, LFE / Front: L C R, Side: L R, LFE
Частота                                  : 48,0 КГц
Частота кадров                           : 93,750 кадра/сек (512 SPF)
Битовая глубина                          : 24 бит
Метод сжатия                             : Без потерь / Lossy
Размер потока                            : 2,94 Гбайт (6%)
Язык                                     : English
Default                                  : Нет
Forced                                   : Нет

Текст #1
Идентификатор                            : 5
Формат                                   : UTF-8
Идентификатор кодека                     : S_TEXT/UTF8
Идентификатор кодека/Информация          : UTF-8 Plain Text
Продолжительность                        : 1 ч. 28 м.
Битрейт                                  : 4 бит/сек
ElementCount                             : 45
Размер потока                            : 2,73 Кбайт (0%)
Заголовок                                : forced
Язык                                     : Russian
Default                                  : Да
Forced                                   : Нет

Текст #2
Идентификатор                            : 6
Формат                                   : UTF-8
Идентификатор кодека                     : S_TEXT/UTF8
Идентификатор кодека/Информация          : UTF-8 Plain Text
Продолжительность                        : 1 ч. 31 м.
Битрейт                                  : 113 бит/сек
ElementCount                             : 1157
Размер потока                            : 76,6 Кбайт (0%)
Заголовок                                : full
Язык                                     : Russian
Default                                  : Нет
Forced                                   : Нет

Текст #3
Идентификатор                            : 7
Формат                                   : UTF-8
Идентификатор кодека                     : S_TEXT/UTF8
Идентификатор кодека/Информация          : UTF-8 Plain Text
Продолжительность                        : 1 ч. 35 м.
Битрейт                                  : 74 бит/сек
ElementCount                             : 1537
Размер потока                            : 52,1 Кбайт (0%)
Заголовок                                : full
Язык                                     : English
Default                                  : Нет
Forced                                   : Нет

Текст #4
Идентификатор                            : 8
Формат                                   : UTF-8
Идентификатор кодека                     : S_TEXT/UTF8
Идентификатор кодека/Информация          : UTF-8 Plain Text
Продолжительность                        : 1 ч. 35 м.
Битрейт                                  : 81 бит/сек
ElementCount                             : 1642
Размер потока                            : 57,2 Кбайт (0%)
Заголовок                                : SDH
Язык                                     : English
Default                                  : Нет
Forced                                   : Нет

Меню
00:00:00.000                             : en:Chapter 01
00:11:12.505                             : en:Chapter 02
00:18:06.168                             : en:Chapter 03
00:29:57.921                             : en:Chapter 04
00:38:55.416                             : en:Chapter 05
00:49:20.749                             : en:Chapter 06
01:00:50.856                             : en:Chapter 07
01:08:16.384                             : en:Chapter 08
01:18:09.810                             : en:Chapter 09
01:26:59.798                             : en:Chapter 10

Фильмы FullHD воспроизводятся без тормозов, только перемотка работает не корректно, через раз. Т.е. может перемотать ползунокк времени и начать воспроизводить видео с того места, с которого пытался перемотать.
Вы писали, что технические результаты обязательны если не работает профиль. Как их получить?

9

Re: Sony KD-X8509C/Sony KD-XE8596/Sony KD-XE8096/KD-XE9005

1857404 пишет:

Добрый день!
Попробовал воспроизвести два фильма 4К. Оба тормозят, т.е. 4-5 сек показывает, потом пару секунд подгружается и опять 4-5 сек показывает.

Данные фильма1

+ открыть спойлер

Общее
Уникальный идентификатор                 : 203532817188524460086917950969612376380 (0x991EFEA68D67101B9EFC159F8810993C)
Полное имя                               : C:\Users\Михаил\Videos\Трансформеры ПК\Transformers.The.Last.Knight.2017.BDREMUX.2160p.4K.UltraHD.HEVC.HDR.ExKinoRay.mkv
Формат                                   : Matroska
Версия формата                           : Version 4 / Version 2
Размер файла                             : 73,2 Гбайт
Продолжительность                        : 2 ч. 34 м.
Режим общего битрейта                    : Переменный
Общий поток                              : 67,7 Мбит/сек
Дата кодирования                         : UTC 2017-10-21 00:00:00
Программа кодирования                    : mkvmerge v17.0.0 ('Be Ur Friend') 64-bit
Библиотека кодирования                   : libebml v1.3.5 + libmatroska v1.4.8

Видео
Идентификатор                            : 1
Формат                                   : HEVC
Формат/Информация                        : High Efficiency Video Coding
Профиль формата                          : Main 10@L5.1@High
Идентификатор кодека                     : V_MPEGH/ISO/HEVC
Продолжительность                        : 2 ч. 34 м.
Битрейт                                  : 62,1 Мбит/сек
Ширина                                   : 3840 пикселей
Высота                                   : 2160 пикселей
Соотношение сторон                       : 16:9
Режим частоты кадров                     : Постоянный
Частота кадров                           : 23,976 (24000/1001) кадра/сек
Цветовое пространство                    : YUV
Субдискретизация насыщенности            : 4:2:0 (Type 2)
Битовая глубина                          : 10 бит
Бит/(Пиксели*Кадры)                      : 0.312
Размер потока                            : 67,1 Гбайт (92%)
Язык                                     : English
Default                                  : Да
Forced                                   : Нет
Цветовой диапазон                        : Limited
Основные цвета                           : BT.2020
Характеристики трансфера                 : PQ
Коэффициенты матрицы                     : BT.2020 non-constant
MasteringDisplay_ColorPrimaries          : R: x=0.680000 y=0.320000, G: x=0.265000 y=0.690000, B: x=0.150000 y=0.060000, White point: x=0.312700 y=0.329000
MasteringDisplay_Luminance               : min: 0.0001 cd/m2, max: 1000.0000 cd/m2

Аудио #1
Идентификатор                            : 2
Формат                                   : AC-3
Формат/Информация                        : Audio Coding 3
Идентификатор кодека                     : A_AC3
Продолжительность                        : 2 ч. 34 м.
Вид битрейта                             : Постоянный
Битрейт                                  : 640 Кбит/сек
Каналы                                   : 6 каналов
Расположение каналов                     : Front: L C R, Side: L R, LFE
Частота                                  : 48,0 КГц
Частота кадров                           : 31,250 кадров/сек (1536 SPF)
Битовая глубина                          : 16 бит
Метод сжатия                             : С потерями
Размер потока                            : 708 Мбайт (1%)
Заголовок                                : Dub [License]
Язык                                     : Russian
ServiceKind/String                       : Complete Main
Default                                  : Да
Forced                                   : Нет

Аудио #2
Идентификатор                            : 3
Формат                                   : TrueHD
Профиль формата                          : TrueHD+Atmos / TrueHD
Идентификатор кодека                     : A_TRUEHD
Продолжительность                        : 2 ч. 34 м.
Вид битрейта                             : Переменный
Битрейт                                  : 4298 Кбит/сек
Максимальный битрейт                     : 6528 Кбит/сек
Каналы                                   : Object Based / 8 каналов
Расположение каналов                     : Object Based / Front: L C R, Side: L R, Back: L R, LFE
Частота                                  :  / 48,0 КГц
Частота кадров                           : 1200,000 кадров/сек (40 SPF)
Метод сжатия                             : Без потерь
Размер потока                            : 4,64 Гбайт (6%)
Заголовок                                : Original
Язык                                     : English
Default                                  : Нет
Forced                                   : Нет

Аудио #3
Идентификатор                            : 4
Формат                                   : AC-3
Формат/Информация                        : Audio Coding 3
Идентификатор кодека                     : A_AC3
Продолжительность                        : 2 ч. 34 м.
Вид битрейта                             : Постоянный
Битрейт                                  : 640 Кбит/сек
Каналы                                   : 6 каналов
Расположение каналов                     : Front: L C R, Side: L R, LFE
Частота                                  : 48,0 КГц
Частота кадров                           : 31,250 кадров/сек (1536 SPF)
Битовая глубина                          : 16 бит
Метод сжатия                             : С потерями
Размер потока                            : 708 Мбайт (1%)
Язык                                     : English
ServiceKind/String                       : Complete Main
Default                                  : Нет
Forced                                   : Нет

Текст #1
Идентификатор                            : 5
Формат                                   : UTF-8
Идентификатор кодека                     : S_TEXT/UTF8
Идентификатор кодека/Информация          : UTF-8 Plain Text
Продолжительность                        : 2 ч. 33 м.
Битрейт                                  : 0 бит/сек
ElementCount                             : 29
Размер потока                            : 1,03 Кбайт (0%)
Заголовок                                : Forced
Язык                                     : Russian
Default                                  : Да
Forced                                   : Нет

Текст #2
Идентификатор                            : 6
Формат                                   : UTF-8
Идентификатор кодека                     : S_TEXT/UTF8
Идентификатор кодека/Информация          : UTF-8 Plain Text
Продолжительность                        : 2 ч. 33 м.
Битрейт                                  : 96 бит/сек
ElementCount                             : 2315
Размер потока                            : 109 Кбайт (0%)
Заголовок                                : Full
Язык                                     : Russian
Default                                  : Нет
Forced                                   : Нет

Текст #3
Идентификатор                            : 7
Формат                                   : UTF-8
Идентификатор кодека                     : S_TEXT/UTF8
Идентификатор кодека/Информация          : UTF-8 Plain Text
Продолжительность                        : 2 ч. 25 м.
Битрейт                                  : 73 бит/сек
ElementCount                             : 2617
Размер потока                            : 78,3 Кбайт (0%)
Заголовок                                : SDH
Язык                                     : English
Default                                  : Нет
Forced                                   : Нет

Меню
00:00:00.000                             : en:Chapter 01
00:06:36.104                             : en:Chapter 02
00:14:03.468                             : en:Chapter 03
00:21:45.763                             : en:Chapter 04
00:27:53.255                             : en:Chapter 05
00:33:53.907                             : en:Chapter 06
00:40:08.906                             : en:Chapter 07
00:46:58.941                             : en:Chapter 08
00:53:25.786                             : en:Chapter 09
01:02:02.928                             : en:Chapter 10
01:08:47.081                             : en:Chapter 11
01:14:37.223                             : en:Chapter 12
01:20:10.180                             : en:Chapter 13
01:29:13.390                             : en:Chapter 14
01:37:59.499                             : en:Chapter 15
01:44:57.583                             : en:Chapter 16
01:51:15.502                             : en:Chapter 17
01:57:59.447                             : en:Chapter 18
02:06:09.729                             : en:Chapter 19
02:10:54.096                             : en:Chapter 20
02:16:01.153                             : en:Chapter 21
02:21:42.619                             : en:Chapter 22
02:25:17.292                             : en:Chapter 23

Данные фильма 2:

+ открыть спойлер

Общее
Уникальный идентификатор                 : 233373516463612394227743508449464887698 (0xAF921AB73BC8FD3A8AAFBA5C65C72992)
Полное имя                               : C:\Users\Михаил\Videos\Чудо на Гудзоне\Чудо на Гудзоне.2016.UHD.BluRay.Remux.2160p.mkv
Формат                                   : Matroska
Версия формата                           : Version 4 / Version 2
Размер файла                             : 46,4 Гбайт
Продолжительность                        : 1 ч. 35 м.
Общий поток                              : 69,3 Мбит/сек
Дата кодирования                         : UTC 2017-10-22 07:27:14
Программа кодирования                    : mkvmerge v17.0.0 ('Be Ur Friend') 64-bit
Библиотека кодирования                   : libebml v1.3.5 + libmatroska v1.4.8
Attachments                              : poster.jpg

Видео
Идентификатор                            : 1
Формат                                   : HEVC
Формат/Информация                        : High Efficiency Video Coding
Профиль формата                          : Main 10@L5.1@High
Идентификатор кодека                     : V_MPEGH/ISO/HEVC
Продолжительность                        : 1 ч. 35 м.
Битрейт                                  : 60,0 Мбит/сек
Ширина                                   : 3840 пикселей
Высота                                   : 2160 пикселей
Соотношение сторон                       : 16:9
Режим частоты кадров                     : Постоянный
Частота кадров                           : 23,976 (24000/1001) кадра/сек
Цветовое пространство                    : YUV
Субдискретизация насыщенности            : 4:2:0 (Type 2)
Битовая глубина                          : 10 бит
Бит/(Пиксели*Кадры)                      : 0.302
Размер потока                            : 40,2 Гбайт (87%)
Библиотека кодирования                   : ATEME Titan File 3.7.8 (4.7.8.0)
Default                                  : Да
Forced                                   : Нет
Цветовой диапазон                        : Limited
Основные цвета                           : BT.2020
Характеристики трансфера                 : PQ
Коэффициенты матрицы                     : BT.2020 non-constant
MasteringDisplay_ColorPrimaries          : R: x=0.680000 y=0.320000, G: x=0.265000 y=0.690000, B: x=0.150000 y=0.060000, White point: x=0.312700 y=0.329000
MasteringDisplay_Luminance               : min: 0.0050 cd/m2, max: 4000.0000 cd/m2
MaxCLL                                   : 4000 cd/m2
MaxFALL                                  : 290 cd/m2

Аудио #1
Идентификатор                            : 2
Формат                                   : AC-3
Формат/Информация                        : Audio Coding 3
Идентификатор кодека                     : A_AC3
Продолжительность                        : 1 ч. 35 м.
Вид битрейта                             : Постоянный
Битрейт                                  : 448 Кбит/сек
Каналы                                   : 6 каналов
Расположение каналов                     : Front: L C R, Side: L R, LFE
Частота                                  : 48,0 КГц
Частота кадров                           : 31,250 кадров/сек (1536 SPF)
Битовая глубина                          : 16 бит
Метод сжатия                             : С потерями
Размер потока                            : 307 Мбайт (1%)
Заголовок                                : Dub, Blu-Ray
Язык                                     : Russian
ServiceKind/String                       : Complete Main
Default                                  : Да
Forced                                   : Нет

Аудио #2
Идентификатор                            : 3
Формат                                   : DTS
Формат/Информация                        : Digital Theater Systems
Профиль формата                          : MA / Core
Идентификатор кодека                     : A_DTS
Продолжительность                        : 1 ч. 35 м.
Вид битрейта                             : Переменный / Постоянный
Битрейт                                  : 4437 Кбит/сек / 1509 Кбит/сек
Каналы                                   : 8 каналов / 6 каналов
Расположение каналов                     : Front: L C R, Side: L R, Back: L R, LFE / Front: L C R, Side: L R, LFE
Частота                                  : 48,0 КГц
Частота кадров                           : 93,750 кадра/сек (512 SPF)
Битовая глубина                          : 24 бит
Метод сжатия                             : Без потерь / Lossy
Размер потока                            : 2,97 Гбайт (6%)
Заголовок                                : Ю. Сербин
Язык                                     : Russian
Default                                  : Нет
Forced                                   : Нет

Аудио #3
Идентификатор                            : 4
Формат                                   : DTS
Формат/Информация                        : Digital Theater Systems
Профиль формата                          : MA / Core
Идентификатор кодека                     : A_DTS
Продолжительность                        : 1 ч. 35 м.
Вид битрейта                             : Переменный / Постоянный
Битрейт                                  : 4399 Кбит/сек / 1509 Кбит/сек
Каналы                                   : 8 каналов / 6 каналов
Расположение каналов                     : Front: L C R, Side: L R, Back: L R, LFE / Front: L C R, Side: L R, LFE
Частота                                  : 48,0 КГц
Частота кадров                           : 93,750 кадра/сек (512 SPF)
Битовая глубина                          : 24 бит
Метод сжатия                             : Без потерь / Lossy
Размер потока                            : 2,94 Гбайт (6%)
Язык                                     : English
Default                                  : Нет
Forced                                   : Нет

Текст #1
Идентификатор                            : 5
Формат                                   : UTF-8
Идентификатор кодека                     : S_TEXT/UTF8
Идентификатор кодека/Информация          : UTF-8 Plain Text
Продолжительность                        : 1 ч. 28 м.
Битрейт                                  : 4 бит/сек
ElementCount                             : 45
Размер потока                            : 2,73 Кбайт (0%)
Заголовок                                : forced
Язык                                     : Russian
Default                                  : Да
Forced                                   : Нет

Текст #2
Идентификатор                            : 6
Формат                                   : UTF-8
Идентификатор кодека                     : S_TEXT/UTF8
Идентификатор кодека/Информация          : UTF-8 Plain Text
Продолжительность                        : 1 ч. 31 м.
Битрейт                                  : 113 бит/сек
ElementCount                             : 1157
Размер потока                            : 76,6 Кбайт (0%)
Заголовок                                : full
Язык                                     : Russian
Default                                  : Нет
Forced                                   : Нет

Текст #3
Идентификатор                            : 7
Формат                                   : UTF-8
Идентификатор кодека                     : S_TEXT/UTF8
Идентификатор кодека/Информация          : UTF-8 Plain Text
Продолжительность                        : 1 ч. 35 м.
Битрейт                                  : 74 бит/сек
ElementCount                             : 1537
Размер потока                            : 52,1 Кбайт (0%)
Заголовок                                : full
Язык                                     : English
Default                                  : Нет
Forced                                   : Нет

Текст #4
Идентификатор                            : 8
Формат                                   : UTF-8
Идентификатор кодека                     : S_TEXT/UTF8
Идентификатор кодека/Информация          : UTF-8 Plain Text
Продолжительность                        : 1 ч. 35 м.
Битрейт                                  : 81 бит/сек
ElementCount                             : 1642
Размер потока                            : 57,2 Кбайт (0%)
Заголовок                                : SDH
Язык                                     : English
Default                                  : Нет
Forced                                   : Нет

Меню
00:00:00.000                             : en:Chapter 01
00:11:12.505                             : en:Chapter 02
00:18:06.168                             : en:Chapter 03
00:29:57.921                             : en:Chapter 04
00:38:55.416                             : en:Chapter 05
00:49:20.749                             : en:Chapter 06
01:00:50.856                             : en:Chapter 07
01:08:16.384                             : en:Chapter 08
01:18:09.810                             : en:Chapter 09
01:26:59.798                             : en:Chapter 10

Фильмы FullHD воспроизводятся без тормозов, только перемотка работает не корректно, через раз. Т.е. может перемотать ползунокк времени и начать воспроизводить видео с того места, с которого пытался перемотать.
Вы писали, что технические результаты обязательны если не работает профиль. Как их получить?

Будем переделывать, подробности в личку вам отправил

WD TV LS+Sony KDLS5600/Samsung UEF5400/Sony PS 3/Yamaha RX-V379/hms 2.33
Кладовая HMS (список полезных ссылок и инструкций)
https://hms.lostcut.net/misc.php?action=pun_attachment&item=2914&download=0
Временно отсутствую

10

Re: Sony KD-X8509C/Sony KD-XE8596/Sony KD-XE8096/KD-XE9005

Профиль для Sony KD-XE8596 обновлен
https://hms.lostcut.net/viewtopic.php?pid=10850#p10850

WD TV LS+Sony KDLS5600/Samsung UEF5400/Sony PS 3/Yamaha RX-V379/hms 2.33
Кладовая HMS (список полезных ссылок и инструкций)
https://hms.lostcut.net/misc.php?action=pun_attachment&item=2914&download=0
Временно отсутствую

11

Re: Sony KD-X8509C/Sony KD-XE8596/Sony KD-XE8096/KD-XE9005

День добрый.Sony KD-XE 8096.Пробовал разные профили,для просмотра 4к по dlna.Фильмы с высоким битрейтом выше 70 заикаются.50 нормально показывает.Просмотр через вай-фай ас. Гигабитные порты.Может что подскажите.

12

Re: Sony KD-X8509C/Sony KD-XE8596/Sony KD-XE8096/KD-XE9005

mokei пишет:

День добрый.Sony KD-XE 8096.Пробовал разные профили,для просмотра 4к по dlna.Фильмы с высоким битрейтом выше 70 заикаются.50 нормально показывает.Просмотр через вай-фай ас. Гигабитные порты.Может что подскажите.

Нужно делать профиль устройства, после настраивать сам hms под тяжелую передачу потока и проверять сеть на потребление в пике передачи потока, начнем с профиля, будет вечером, остальное напишу по ходу дела

WD TV LS+Sony KDLS5600/Samsung UEF5400/Sony PS 3/Yamaha RX-V379/hms 2.33
Кладовая HMS (список полезных ссылок и инструкций)
https://hms.lostcut.net/misc.php?action=pun_attachment&item=2914&download=0
Временно отсутствую

13

Re: Sony KD-X8509C/Sony KD-XE8596/Sony KD-XE8096/KD-XE9005

Спасибо большое. Буду ждать.

14

Re: Sony KD-X8509C/Sony KD-XE8596/Sony KD-XE8096/KD-XE9005

Sony KD-XE8096

Профиль протестирован, огромная благодарность пользователю mokei

Готовый файл настроек, построена таблица файлов.
Локально все показывает без транскода, настроено IPTV и интернет радио.

Профиль рассчитан на передачу потока без участия транскода, то есть в качестве источника, может выступать: ноутбук, нетбук, неттоп. В общем не требователен к железу, если не изменять качество выходного потока.

Решение проблемы с фризами на большом битрейте

Подробнее

+ открыть спойлер

- Сделан под сжатие HEVC/ формат TS
- Добавлена возможность просмотра локального видео 60 fps (1080p и 720p)
- Более быстрый запуск видео, за счёт уменьшения порций получения потока
- Добавлена перемотка на локальных файлах и подкастах (как перемещение по времени, так и стандартная перемотка)
Возможны задержки (после перемотки, несколько секунд), рекомендуется проводное подключение) или перемотка, через папку транскодирования/интервал 1 минута
- Многоканальный звук реализован, через AC3 (7.1) или DTS
Гарантированная работа всех функций, только на прилагаемом профиле и с настройками подкастов из шапки

Подробнее по 4K

Как смотреть:

+ открыть спойлер

1. Через локальную сеть, с ПК

2. С использованием встроенного в HMS торрент клиента (как показано в скриншотах)

Обязательно пробросьте диапазон портов 6881-6889 в роутере
Нужно создать два правила для TCP и UDP, в разделе безопасность (Firewall)/Пункт/Правила трансляции сетевых адресов (NAT)
Описание: HMS Tor
Интерфейс: Вам нужна внешняя сеть ISP
Протокол: TCP (первое правило), UDP (второе правило)
Порты (TCP/UDP): (Диапазон) (6881-6889)
Перенаправление: IP адрес своего компьютера
Или если роутер не позволяет пробрасывать диапазоны, то первый порт 6881 и последний 6889
Добавиться строчка: Новый порт назначения: 6881 и 6889
На примере роутера (Zyxel Keenetic Giga 2)

3. С использованием Ace Stream, через подкаст Torrent Rover

FAQ по 4K

+ открыть спойлер

1. Ограничения по битрейту выходного потока
- Для проводного соединения 100 mbps (предпочтительное соединение)
- Для WiFi 802.11n 135 mbps (в идеальных условиях: не захламлён канал, нет препятствий, включён режим в роутере (Wi-Fi Multimedia (WMM), или Wireless Multimedia Extensions (WME))
Но есть небольшой нюанс, почему я советую проводное соединение, у WiFi плохая стартовая стабильность и резкие проседания во время передачи потока, что приводит к случаю, когда ТВ не дожидается потока и выдаёт ошибку
- Для WiFi IEEE 802.11ac (нет ограничений, если роутер соответствует данной спецификации и у вас выход в сеть, более 100 Мбит/с)

2. Проседания потока при передачи, через stream torrent protocol (STP)

- Зависит от наличия сидов/пиров при торрент просмотре
- Качества сети и пиковой нагрузки
- Мощности роутера

3. Профиль выдаёт полностью исходный файл (качество/битрейт/формат и т.д.)

Так же привожу пример настроек подкастов

Все подкасты ищем в разделе Подкасты

Как поставить индивидуальные профили транскода на подкаст, можно прочитать в faq (вверху сайта), вкладка установка своего профиля транскодирования для конкретного подкаста.

ВНИМАНИЕ!!!!
Не забывайте в настройках всех подкастов, очищать строчку MIME тип


Настройки для версии

+ открыть спойлер

Moonwalk - Фильмы (оптимальный)
Kodik.top - Фильмы (оптимальный)
Getmovie.cc - Фильмы (оптимальный)
Ex-fs.net - Фильмы (оптимальный)
Edem.TV - Фильмы (оптимальный)
Fox-Fan.ru - Фильмы (оптимальный)
Filmix.net - Фильмы (оптимальный)
Kinokong.net - Фильмы (оптимальный)
HDSerials.TV - Фильмы (оптимальный)
HDKinoTeatr.com - Фильмы (оптимальный)
Seasonvar.ru - Фильмы (оптимальный)
Tree.TV - Фильмы (оптимальный)
Интернет радио премиум AudioAddict - Всё уже настроено добавьте и слушайте
Важно использовать именно приведённые профили транскодирования, для гарантированной работоспособности

Как активировать Nvidia Encoder

+ открыть спойлер

1. Устанавливаем профиль
2. Читаем и воплощаем совет d1mas
https://hms.lostcut.net/viewtopic.php?id=123
3. Только для карт Nvidia, проверить список поддерживаемых карт можно здесь
https://developer.nvidia.com/cuda-gpus (смотрим desktop серию GeForce)

Пример настроек подкастов для версии (Torrent телевидение)

+ открыть спойлер

TTV-VIP_playlist_(real) - AceStream (Видео без изменения)
Tuchka TV - AceStream (Видео без изменения)
TTV Autoplaylist - AceStream (Видео без изменения)
IPTV playlists - AceStream (Видео без изменения)
Torrent Rover - AceStream (Видео без изменения)

Мини FAQ, по настройке Torrent телевидения

+ открыть спойлер

1. Устанавливаем Ace Stream (при установке рекомендуется выбирать HDD, а не SSD)
2. Прописываем порт (8621) в роутере
Нужно создать два правила для TCP и UDP, в разделе безопасность (Firewall)/Пункт/Правила трансляции сетевых адресов (NAT)

+ открыть спойлер

Описание: Ace Stream
Интерфейс: Вам нужна внешняя сеть ISP
Протокол: TCP (первое правило), UDP (второе правило)
Порты (TCP/UDP): (Один порт) (8621)
Перенаправление: IP адрес своего компьютера
Новый порт назначения: 8621
На примере роутера (Zyxel Keenetic Giga 2)

3. Добавить в исключения в брандмауэр Windows (или в другой, сторонний): 
Ace Player HD (ace_player.exe) и Ace Engine (ace_engine.exe).
Пропустить, если не используется брандмауэр
4. В настройках Ace Stream (правой кнопкой мыши, в области уведомлений, на значке ace/опции)
Буфер VOD :50/Live 200 (при сети более 50 Mb/s) или значения больше, если скорость сети, ниже
5. Редактируем файл System32\drivers\etc \hosts (открываем блокнотом)

+ открыть спойлер

Прописываем, после строчки ( #    ::1             localhost)
#       127.0.0.1 medias.kadam.ru
#       127.0.0.1 o3fy684faxh8o.ru
#       127.0.0.1 wac.A164.edgecastcdn.net
#       127.0.0.1 wac.a164.taucdn.net
#       127.0.0.1 cdn.onedmp.com
#       127.0.0.1 ua2cdn.admixer.net
Соблюдая правила синтаксиса, то есть пробелы и т.д.

6. Включаем Ace Player, в меню Медиа/Открыть Ace Stream Content ID/ вставить

ea4702f84cd5b95b13159d12d0785ab31dc30e1e

/указываем пол и возраст
7. Скачиваем ACESTREAM.cfg и добавляем его в hms
https://hms.lostcut.net/misc.php?action … download=1

Как установить :
HMS - Настройки - устройства - своё устройство - настройки - внизу загрузить - скачанный профиль

Обязательно установить VLC или обновить установленный

Мини FAQ

+ открыть спойлер

1.Настройку осуществляйте именно индивидуального устройства, а не по-умолчанию
2.Удалите ваше текущее устройство (настройки hms/устройства/удалить/перезапустите hms выгрузив его полностью)
3.Добавьте устройство по новой (настройки hms/устройства/поиск/поиск/отметить галочкой нужное устройство)
4.Настройте устройство загрузив в него скачанный профиль (настройки hms/устройства/молоток с ключом на самом устройстве/загрузить внизу/ok)
5.Настройте индивидуальные профили для подкастов (на подкасте правой кнопкой мыши/изменить названия-настройки/выбрать профиль транскодирование) (если надо загрузите дополнительные профили транскода)
6.Перезапустите hms выгрузив его полностью
7.IPTV добавляется прямым потоком и появляется в папке интернет телевидение
8.Интернет радио добавляется прямым потоком и появляется в папке интернет радио

Задавайте вопросы не стесняйтесь, по возможности буду отвечать.
Также оставляйте комментарии, со своими настройками подкастов, которых нет в списке.
Тем самым вы помогаете другим.

Бонус
Добавление отметки "просмотренное видео"

Важно!!!
Скриншоты настроек программы (hms)

+ открыть спойлер

Как правильно установить готовый профиль устройства в HMS

Прикреплённые файлы сообщения

Sony KD-XE8096 ver.2.cfg 45.72 kb, скачивалось 197 раз, начиная с 2017.12.12

WD TV LS+Sony KDLS5600/Samsung UEF5400/Sony PS 3/Yamaha RX-V379/hms 2.33
Кладовая HMS (список полезных ссылок и инструкций)
https://hms.lostcut.net/misc.php?action=pun_attachment&item=2914&download=0
Временно отсутствую

15 (2017.11.28 19:15:35 отредактировано mokei)

Re: Sony KD-X8509C/Sony KD-XE8596/Sony KD-XE8096/KD-XE9005

Здравствуйте.Попробовал данный профиль,перед этим пробовал универсальный 4к. одинаково начинает заикаться с одного и та во же места.пробовал и через вай-фай 5ггц,2.4ггц и через кабель по домашней сети.Нагрузки нету ни на компьютере ни на роутере. Может что битрейт большой 77.

16

Re: Sony KD-X8509C/Sony KD-XE8596/Sony KD-XE8096/KD-XE9005

mokei пишет:

Здравствуйте.Попробовал данный профиль,перед этим пробовал универсальный 4к. одинаково начинает заикаться с одного и тавоже

Значит нужна настройка, которую вы не сделали, напишу в личку

Скорее всего дело в сети, уже маялись с такой проблемой на Sony KD-XE8596, тоже ac и не тянуло, пришлось переводить на медь и настраивать, завтра все посмотрю и настрою

WD TV LS+Sony KDLS5600/Samsung UEF5400/Sony PS 3/Yamaha RX-V379/hms 2.33
Кладовая HMS (список полезных ссылок и инструкций)
https://hms.lostcut.net/misc.php?action=pun_attachment&item=2914&download=0
Временно отсутствую

17

Re: Sony KD-X8509C/Sony KD-XE8596/Sony KD-XE8096/KD-XE9005

Здравствуйте, имеется sony xe9005, попробовал разные профили, стандартный 4К и для Sony KD-XE8596, после минуты воспроизведения начинаются затыки. Заикаться начинает примерно в одних и тех же местах. Смотрю большие ремуксы 4К от 50 ГБ. Пробовал подключить по кабелю (100 Мбит) и по wi-fi 5ghz, в качестве медиа плеера ноут подключенный к роутеру zyxel keenetic giga iii по кабелю (1000 Мбит).

18

Re: Sony KD-X8509C/Sony KD-XE8596/Sony KD-XE8096/KD-XE9005

Katar пишет:

Здравствуйте, имеется sony xe9005, попробовал разные профили, стандартный 4К и для Sony KD-XE8596, после минуты воспроизведения начинаются затыки. Заикаться начинает примерно в одних и тех же местах. Смотрю большие ремуксы 4К от 50 ГБ. Пробовал подключить по кабелю (100 Мбит) и по wi-fi 5ghz, в качестве медиа плеера ноут подключенный к роутеру zyxel keenetic giga iii по кабелю (1000 Мбит).

Профиль сделаю, хотя дело скорее всего в настройках самой программы, если поток идет, значит профиль устройства работает, а фризы из за нехватки сети в пиках или неправильно настроеной программе

WD TV LS+Sony KDLS5600/Samsung UEF5400/Sony PS 3/Yamaha RX-V379/hms 2.33
Кладовая HMS (список полезных ссылок и инструкций)
https://hms.lostcut.net/misc.php?action=pun_attachment&item=2914&download=0
Временно отсутствую

19

Re: Sony KD-X8509C/Sony KD-XE8596/Sony KD-XE8096/KD-XE9005

Big Dog пишет:

Профиль сделаю, хотя дело скорее всего в настройках самой программы, если поток идет, значит профиль устройства работает, а фризы из за нехватки сети в пиках или неправильно настроеной программе

Большое спасибо, не подскажите, что помимо профиля еще по настройкам можно сделать?

20

Re: Sony KD-X8509C/Sony KD-XE8596/Sony KD-XE8096/KD-XE9005

Katar пишет:

Большое спасибо, не подскажите, что помимо профиля еще по настройкам можно сделать?

Сделаю профиль и все распишу по настройке, если что, то и дальше по тестированию помогу

WD TV LS+Sony KDLS5600/Samsung UEF5400/Sony PS 3/Yamaha RX-V379/hms 2.33
Кладовая HMS (список полезных ссылок и инструкций)
https://hms.lostcut.net/misc.php?action=pun_attachment&item=2914&download=0
Временно отсутствую

21

Re: Sony KD-X8509C/Sony KD-XE8596/Sony KD-XE8096/KD-XE9005

Sony KD-XE9005

Профиль протестирован, огромная благодарность пользователю Katar

Готовый файл настроек, построена таблица файлов.
Локально все показывает без транскода, настроено IPTV и интернет радио.

Профиль рассчитан на передачу потока без участия транскода, то есть в качестве источника, может выступать: ноутбук, нетбук, неттоп. В общем не требователен к железу, если не изменять качество выходного потока.

Решение проблемы с фризами на большом битрейте

Подробнее

+ открыть спойлер

- Сделан под сжатие HEVC/ формат TS
- Добавлена возможность просмотра локального видео 60 fps (1080p и 720p)
- Более быстрый запуск видео, за счёт уменьшения порций получения потока
- Добавлена перемотка на локальных файлах и подкастах (как перемещение по времени, так и стандартная перемотка)
Возможны задержки (после перемотки, несколько секунд), рекомендуется проводное подключение) или перемотка, через папку транскодирования/интервал 1 минута
- Многоканальный звук реализован, через AC3 (7.1)/dolby atmos или DTS/DTS HD/DTS MA
Гарантированная работа всех функций, только на прилагаемом профиле и с настройками подкастов из шапки

Подробнее по 4K

Как смотреть:

+ открыть спойлер

1. Через локальную сеть, с ПК

2. С использованием встроенного в HMS торрент клиента (как показано в скриншотах)

Обязательно пробросьте диапазон портов 6881-6889 в роутере
Нужно создать два правила для TCP и UDP, в разделе безопасность (Firewall)/Пункт/Правила трансляции сетевых адресов (NAT)
Описание: HMS Tor
Интерфейс: Вам нужна внешняя сеть ISP
Протокол: TCP (первое правило), UDP (второе правило)
Порты (TCP/UDP): (Диапазон) (6881-6889)
Перенаправление: IP адрес своего компьютера
Или если роутер не позволяет пробрасывать диапазоны, то первый порт 6881 и последний 6889
Добавиться строчка: Новый порт назначения: 6881 и 6889
На примере роутера (Zyxel Keenetic Giga 2)

3. С использованием Ace Stream, через подкаст Torrent Rover

FAQ по 4K

+ открыть спойлер

1. Ограничения по битрейту выходного потока
- Для проводного соединения 100 mbps (предпочтительное соединение)
- Для WiFi 802.11n 135 mbps (в идеальных условиях: не захламлён канал, нет препятствий, включён режим в роутере (Wi-Fi Multimedia (WMM), или Wireless Multimedia Extensions (WME))
Но есть небольшой нюанс, почему я советую проводное соединение, у WiFi плохая стартовая стабильность и резкие проседания во время передачи потока, что приводит к случаю, когда ТВ не дожидается потока и выдаёт ошибку
- Для WiFi IEEE 802.11ac (нет ограничений, если роутер соответствует данной спецификации и у вас выход в сеть, более 100 Мбит/с)

2. Проседания потока при передачи, через stream torrent protocol (STP)

- Зависит от наличия сидов/пиров при торрент просмотре
- Качества сети и пиковой нагрузки
- Мощности роутера

3. Профиль выдаёт полностью исходный файл (качество/битрейт/формат и т.д.)

Так же привожу пример настроек подкастов

Все подкасты ищем в разделе Подкасты

Как поставить индивидуальные профили транскода на подкаст, можно прочитать в faq (вверху сайта), вкладка установка своего профиля транскодирования для конкретного подкаста.

ВНИМАНИЕ!!!!
Не забывайте в настройках всех подкастов, очищать строчку MIME тип


Настройки для версии

+ открыть спойлер

Moonwalk - Фильмы (оптимальный)
Kodik.top - Фильмы (оптимальный)
Getmovie.cc - Фильмы (оптимальный)
Ex-fs.net - Фильмы (оптимальный)
Edem.TV - Фильмы (оптимальный)
Fox-Fan.ru - Фильмы (оптимальный)
Filmix.net - Фильмы (оптимальный)
Kinokong.net - Фильмы (оптимальный)
HDSerials.TV - Фильмы (оптимальный)
HDKinoTeatr.com - Фильмы (оптимальный)
Seasonvar.ru - Фильмы (оптимальный)
Tree.TV - Фильмы (оптимальный)
Интернет радио премиум AudioAddict - Всё уже настроено добавьте и слушайте
Важно использовать именно приведённые профили транскодирования, для гарантированной работоспособности

Как активировать Nvidia Encoder

+ открыть спойлер

1. Устанавливаем профиль
2. Читаем и воплощаем совет d1mas
https://hms.lostcut.net/viewtopic.php?id=123
3. Только для карт Nvidia, проверить список поддерживаемых карт можно здесь
https://developer.nvidia.com/cuda-gpus (смотрим desktop серию GeForce)

Пример настроек подкастов для версии (Torrent телевидение)

+ открыть спойлер

TTV-VIP_playlist_(real) - AceStream (Видео без изменения)
Tuchka TV - AceStream (Видео без изменения)
TTV Autoplaylist - AceStream (Видео без изменения)
IPTV playlists - AceStream (Видео без изменения)
Torrent Rover - AceStream (Видео без изменения)

Мини FAQ, по настройке Torrent телевидения

+ открыть спойлер

1. Устанавливаем Ace Stream (при установке рекомендуется выбирать HDD, а не SSD)
2. Прописываем порт (8621) в роутере
Нужно создать два правила для TCP и UDP, в разделе безопасность (Firewall)/Пункт/Правила трансляции сетевых адресов (NAT)

+ открыть спойлер

Описание: Ace Stream
Интерфейс: Вам нужна внешняя сеть ISP
Протокол: TCP (первое правило), UDP (второе правило)
Порты (TCP/UDP): (Один порт) (8621)
Перенаправление: IP адрес своего компьютера
Новый порт назначения: 8621
На примере роутера (Zyxel Keenetic Giga 2)

3. Добавить в исключения в брандмауэр Windows (или в другой, сторонний): 
Ace Player HD (ace_player.exe) и Ace Engine (ace_engine.exe).
Пропустить, если не используется брандмауэр
4. В настройках Ace Stream (правой кнопкой мыши, в области уведомлений, на значке ace/опции)
Буфер VOD :50/Live 200 (при сети более 50 Mb/s) или значения больше, если скорость сети, ниже
5. Редактируем файл System32\drivers\etc \hosts (открываем блокнотом)

+ открыть спойлер

Прописываем, после строчки ( #    ::1             localhost)
#       127.0.0.1 medias.kadam.ru
#       127.0.0.1 o3fy684faxh8o.ru
#       127.0.0.1 wac.A164.edgecastcdn.net
#       127.0.0.1 wac.a164.taucdn.net
#       127.0.0.1 cdn.onedmp.com
#       127.0.0.1 ua2cdn.admixer.net
Соблюдая правила синтаксиса, то есть пробелы и т.д.

6. Включаем Ace Player, в меню Медиа/Открыть Ace Stream Content ID/ вставить

ea4702f84cd5b95b13159d12d0785ab31dc30e1e

/указываем пол и возраст
7. Скачиваем ACESTREAM.cfg и добавляем его в hms
https://hms.lostcut.net/misc.php?action … download=1

Как установить :
HMS - Настройки - устройства - своё устройство - настройки - внизу загрузить - скачанный профиль

Обязательно установить VLC или обновить установленный

Мини FAQ

+ открыть спойлер

1.Настройку осуществляйте именно индивидуального устройства, а не по-умолчанию
2.Удалите ваше текущее устройство (настройки hms/устройства/удалить/перезапустите hms выгрузив его полностью)
3.Добавьте устройство по новой (настройки hms/устройства/поиск/поиск/отметить галочкой нужное устройство)
4.Настройте устройство загрузив в него скачанный профиль (настройки hms/устройства/молоток с ключом на самом устройстве/загрузить внизу/ok)
5.Настройте индивидуальные профили для подкастов (на подкасте правой кнопкой мыши/изменить названия-настройки/выбрать профиль транскодирование) (если надо загрузите дополнительные профили транскода)
6.Перезапустите hms выгрузив его полностью
7.IPTV добавляется прямым потоком и появляется в папке интернет телевидение
8.Интернет радио добавляется прямым потоком и появляется в папке интернет радио

Задавайте вопросы не стесняйтесь, по возможности буду отвечать.
Также оставляйте комментарии, со своими настройками подкастов, которых нет в списке.
Тем самым вы помогаете другим.

Бонус
Добавление отметки "просмотренное видео"

Важно!!!
Скриншоты настроек программы (hms)

+ открыть спойлер

Как правильно установить готовый профиль устройства в HMS

Прикреплённые файлы сообщения

Sony KD-XE9005.cfg 45.71 kb, скачивалось 367 раз, начиная с 2017.12.14

WD TV LS+Sony KDLS5600/Samsung UEF5400/Sony PS 3/Yamaha RX-V379/hms 2.33
Кладовая HMS (список полезных ссылок и инструкций)
https://hms.lostcut.net/misc.php?action=pun_attachment&item=2914&download=0
Временно отсутствую

22

Re: Sony KD-X8509C/Sony KD-XE8596/Sony KD-XE8096/KD-XE9005

Хочу отписаться по поводу xe-9005. С данным профилем все работает отлично, но только на стороннем плеере (kodi например), стандартный плеер сони отказывается переварить большие потоки по сети (не более 75 мбит/с), в то время как kodi в пике съедает 160 мбит/с и проигрывает видео без затыков.

23

Re: Sony KD-X8509C/Sony KD-XE8596/Sony KD-XE8096/KD-XE9005

Добрый день, у меня вопрос не совсем по HMS, хотя возможно затык именно в настройках, имею sony kd xe9005, ПК и роутер Zyxel Keenetic Extra II - подключен к компу по 100 мбит порту, к тв по 5Ггц вафле (в настройках роуетра показывает скорость до 867 Гбит\с), при попытке смотреть тяжелые 4к фильмы от 40+ Гб, пробовал и стандартный плеер и kodi и vlc, везде есть тормоза и подгрузы, если подключать внешний диск по usb 3.0 все идет без тормозов, я так понимаю, слабое место это 100 мбит между ПК и роутером ?
Как я могу оптимально решить свою проблему, взять роутер с гигабитными портами, или есть вариант решить проблему с имеющимся оборудованием ?
Буду благодарен за помощь.

24

Re: Sony KD-X8509C/Sony KD-XE8596/Sony KD-XE8096/KD-XE9005

mgkmgk пишет:

Добрый день, у меня вопрос не совсем по HMS, хотя возможно затык именно в настройках, имею sony kd xe9005, ПК и роутер Zyxel Keenetic Extra II - подключен к компу по 100 мбит порту, к тв по 5Ггц вафле (в настройках роуетра показывает скорость до 867 Гбит\с), при попытке смотреть тяжелые 4к фильмы от 40+ Гб, пробовал и стандартный плеер и kodi и vlc, везде есть тормоза и подгрузы, если подключать внешний диск по usb 3.0 все идет без тормозов, я так понимаю, слабое место это 100 мбит между ПК и роутером ?
Как я могу оптимально решить свою проблему, взять роутер с гигабитными портами, или есть вариант решить проблему с имеющимся оборудованием ?
Буду благодарен за помощь.

Слабое место это сетевое оборудование в самом ТВ и ограничения работы, через dlna в 80 мбит, так что если этот порог превышен, получаете фризы, новый роутер проблему не решит, еще есть вариант, что сам hms настроен не оптимально и профиль установлен не правильно

WD TV LS+Sony KDLS5600/Samsung UEF5400/Sony PS 3/Yamaha RX-V379/hms 2.33
Кладовая HMS (список полезных ссылок и инструкций)
https://hms.lostcut.net/misc.php?action=pun_attachment&item=2914&download=0
Временно отсутствую

25

Re: Sony KD-X8509C/Sony KD-XE8596/Sony KD-XE8096/KD-XE9005

Могу предположить, что это ограничение в DLNA-клиенте телевизора.
Я пробовал воспроизводить 4К с HDD, подключенному непосредственно к Wi-Fi роутеру по USB 30 (В роутере есть встроенный DLNA-сервер, скорость по WI-Fi до 1300) - идут тормоза.
Если подключить диск непосредственно к телеку - тормозов нет.

26 (2018.02.27 09:32:55 отредактировано mgkmgk)

Re: Sony KD-X8509C/Sony KD-XE8596/Sony KD-XE8096/KD-XE9005

Big Dog пишет:

Слабое место это сетевое оборудование в самом ТВ и ограничения работы, через dlna в 80 мбит, так что если этот порог превышен, получаете фризы, новый роутер проблему не решит, еще есть вариант, что сам hms настроен не оптимально и профиль установлен не правильно

Тв способен работать на 5Ггц, откуда ограничение в 80 мбит ?  Проводное подключение да, там только 100мбит.


askman пишет:

Могу предположить, что это ограничение в DLNA-клиенте телевизора.
Я пробовал воспроизводить 4К с HDD, подключенному непосредственно к Wi-Fi роутеру по USB 30 (В роутере есть встроенный DLNA-сервер, скорость по WI-Fi до 1300) - идут тормоза.
Если подключить диск непосредственно к телеку - тормозов нет.

Какой у вас роутер с usb 3.0, на сколько я знаю, все юсб порты в роутерах имеют ограничения в сравнении с обычными портами в тех же пк или тв, самый оптимальный вариант, который я нашел - это NAS, док станция подключенный к роутеру по гигабитному порту и к тв по 5Ггц, человек утверждает, что Ярость 122Гб, с битрейтом 145мб\с идет без тормозов.

27

Re: Sony KD-X8509C/Sony KD-XE8596/Sony KD-XE8096/KD-XE9005

mgkmgk

Тв способен работать на 5Ггц, откуда ограничение в 80 мбит ?  Проводное подключение да, там только 100мбит.

Из английского руководства, mp4 100 мбит для AVC, для mkv 80 мбит

Как уже и написал, возможно настроен неправильно сам hms или профиль установлен не правильно, как вы заметили профиль устройства протестирован на устройстве и полностью рабочий, включая воспроизведение 4к, если вас интересует настройка и самостоятельное тестирование, напишите мне в личку, расскажу что и как

WD TV LS+Sony KDLS5600/Samsung UEF5400/Sony PS 3/Yamaha RX-V379/hms 2.33
Кладовая HMS (список полезных ссылок и инструкций)
https://hms.lostcut.net/misc.php?action=pun_attachment&item=2914&download=0
Временно отсутствую

28 (2018.02.27 21:42:24 отредактировано askman)

Re: Sony KD-X8509C/Sony KD-XE8596/Sony KD-XE8096/KD-XE9005

mgkmgk пишет:

Какой у вас роутер с usb 3.0.

Роутер:
http://www.netgear.ru/home/products/net … R7000.aspx


HDD 3.5 1Tb SATA 3. Диск в боксе с вентилятором, питанием и интерфейсом USB 3.0


Телек :   XE7096

29

Re: Sony KD-X8509C/Sony KD-XE8596/Sony KD-XE8096/KD-XE9005

askman пишет:

Роутер:
http://www.netgear.ru/home/products/net … R7000.aspx


HDD 3.5 1Tb SATA 3. Диск в боксе с вентилятором, питанием и интерфейсом USB 3.0


Телек :   XE7096

На форуме роутера обсуждали эту проблему:
https://community.netgear.com/t5/Nighth … 007/page/2
Как я уже писал выше, hdd через док станцию или НАС, нужно подключать к роутеру через гигабитный порт, лучше что бы их было 2 или более в тиме для балансировки\ускорения и далее по вафле 5 Ггц к ТВ - это самый быстрый способ передачи в данный момент, на сколько я понимаю.

30

Re: Sony KD-X8509C/Sony KD-XE8596/Sony KD-XE8096/KD-XE9005

mgkmgk, специально для Вас сделал несколько замеров скорости передачи файла, чтобы Вам было легче принять правильное решение.
Копировал файл 60 ГБайт, в конце копирования скорость всегда снижалась. Замерял Total Comander-ом. Итак:
1. Копирование файла с одного HDD на другой (оба SAT II, т.е. 3Gb/s) на стационарном компе:
               115 -> 85 ГБайт/сек (т.е. 920 - 680 Гбит/сек);
2. Копирование файла с HDD компа на HDD ноута через коммутатор роутера (1Gb) по витой паре:
                 72 -> 53 ГБайт/сек (т.е. 576 - 424 Гбит/сек);
3. Копирование файла с HDD, подсоединенного к роутеру по USB 3.0 на SSD компа , подсоединенного к роутеру витой парой (попытался максимально воспроизвести ситуацию проигрывания файла на телеке:
                 68 -> 48 ГБайт/сек (т.е. 544 - 384 Гбит/сек).

Как видим, разница между п.2 и п.3 не существенна.
Скорость передачи файла по витой паре через простенький коммутатор, по моему опыту, вполне стандартна (1/2 от характеристики).

Что касается NAS, штуки интересные, но неоправданно дорогие, и нет возможности в них что-то  перенастроить самостоятельно на уровне ОС, установить доп. программы. Одним словом "черный ящик". Для себя Я решил вместо NAS, в будующем собрать самостоятельно отдельный сервер, с хорошим RAID-контроллером, разместить там "облачное" хранилище, DLNA-сервер, торент-клинет и пр. Получится дешевле, но при этом гораздо производительнее.

Да, что качается объединения сетевых портов в TEAM. Не надейтесь получить существенную прибавку к сетевой скорости. Я сам на работе проводил в свое время эксперименты - объединял до 4-х портов. Максимум что получилось - это увеличить скорость на 30%. При этом существенно увеличивается нагрузка на ЦП сервера. TEAM в первую очередь это для надежности, в случае отказа одного сетевого порта. И чтобы сделать TEAM, нужен доступ к ОС (в NAS это Linux), иметь возможность устанавливать и настраивать драйвера.