1

Тема: Sony KDL-W817B/Sony KDL-W828B

Здравствуйте! Я точно и не знаю в какой раздел обращаться... Перейдем к самой проблеме:
Моя проблема заключается в том, что при использовании другой модели (не KDL-42W817B), заходя на мультимедийный сервер, там отображается структура сервера. В моем же случае, телевизор не отображает НИКАКОЙ структуры, никаких папок, вообще ничего, кроме типов мультимедиа, который можно выбрать (фото, музыка, видео, все). Телевизору вообще плевать на всю эту структуру и удобнейшие фичи в разделе "служебные" (ну или как-то так).

Собственно сам вопрос: не могли бы вы помочь мне разобраться, каким образом можно исправить данное недоразумение?
P.S. проверял на других телевизорах, структура отображалась как надо.

2

Re: Sony KDL-W817B/Sony KDL-W828B

Так он вообще HMS не видит, получается? Ибо разделы "фото, музыка, видео" на моём телеке отображаются ДО того, как можно войти в сервер HMS или другой доступный медиа-сервер.

Sony Bravia KDL-32CX523

3

Re: Sony KDL-W817B/Sony KDL-W828B

WendyH пишет:

он вообще HMS не видит

Моя ошибка - не дописал.
Телевизор видет HMS как мультимедийный сервер и распознает все файлы. Проблема в том, что нет никакого структурирования. Просто отображается список файлов (обложка и название) и выбор тип мультимедиа. Даже отсортировать ничего нельзя, разбить по папкам.

У меня винт на 6 тб под фильмы. Недавно форматнул, до этого на нем было 4 тб фильмов, искать тот или иной фильм было сложно на телевизоре, особенно когда еще и TopGear был. Поэтому приходилось и приходится запускать фильмы с ПК.

Правда есть и другая проблема: фильмы высокого качества (blu-ray, BDRemux и даже BDRip 1080p) передиочески заедают (звук и картинка) при том, что соединение между ПК и телевизором настроено через роутер по кабелю.

В общем, проблем хватает =)

4

Re: Sony KDL-W817B/Sony KDL-W828B

По поводу структуры папок не подскажу.
Но интересно,

Просто отображается список файлов (обложка и название) и выбор тип мультимедиа.

Что значит "и выбор тип мультимедиа"?

По поводу притормаживаний. Могут быть две причины: скорость сети и нехватка мощности процессора при перекодировании.
Посмотрите, при просмотре таких фильмов проц сильно загружен? Если форматы этих файлов телек "кушает" как есть и ему не нужны перекодировщики, то тогда лучше настроить HMS так, чтобы он их просто отдавал, не преобразуя?
Если форматы не поддерживает, то тогда проблемка. При некоторых настройках он может отдавать не очень сжато поток  так, что никакой пропускной способности сети может не хватить. Тогда ограничивать битрейт. Вот тут есть немного описания, как это можно сделать.

Sony Bravia KDL-32CX523

5

Re: Sony KDL-W817B/Sony KDL-W828B

GinTR1k

Телевизор видет HMS как мультимедийный сервер и распознает все файлы. Проблема в том, что нет никакого структурирования. Просто отображается список файлов (обложка и название) и выбор тип мультимедиа. Даже отсортировать ничего нельзя, разбить по папкам.

Для локальных файлов, можно сделать так, смотрим скриншоты

Правда есть и другая проблема: фильмы высокого качества (blu-ray, BDRemux и даже BDRip 1080p) передиочески заедают (звук и картинка) при том, что соединение между ПК и телевизором настроено через роутер по кабелю.

Профиль вам сделал (x264/ts), если что не работает пишите будем править.
Профиль транскодирования для подкастов Фильмы (основной) или FFMPEG

P.S.Ваша проблема в том, что многие фильмы в таком качестве (Remux) имеют формат MKV, по умолчанию в программе на стандартном профиле для телевизоров Sony, все mkv обрабатываются через TsMuxer, а это очень требовательный энкодер.
Советую прочитать, возможно самостоятельно, настроите под себя
https://hms.lostcut.net/viewtopic.php?id=251
Также читайте про профили транскода, чтобы выбрать подходящий
https://hms.lostcut.net/viewtopic.php?id=249

Как правильно установить готовый профиль устройства в HMS

Прикреплённые файлы сообщения

Sony KDL-42W817B.cfg 41.18 kb, скачивалось 432 раза, начиная с 2016.07.27

Для локальных файлов 1.png 182.34 kb, скачивалось 97 раз, начиная с 2016.07.27

Для локальных файлов 2.png 184.57 kb, скачивалось 107 раз, начиная с 2016.07.27

WD TV LS+Sony KDLS5600/Samsung UEF5400/Sony PS 3/Yamaha RX-V379/hms 2.33
Кладовая HMS (список полезных ссылок и инструкций)
https://hms.lostcut.net/misc.php?action=pun_attachment&item=2914&download=0
Временно отсутствую

6

Re: Sony KDL-W817B/Sony KDL-W828B

WendyH пишет:

Что значит "и выбор тип мультимедиа"?

GinTR1k пишет:

телевизор не отображает НИКАКОЙ структуры, никаких папок, вообще ничего, кроме типов мультимедиа, который можно выбрать (фото, музыка, видео, все).

Видео - фильмы, музыка - музыка, фото - фотографии, все - все перечисленное.

WendyH пишет:

По поводу притормаживаний. Могут быть две причины: скорость сети и нехватка мощности процессора при перекодировании.

Я не думаю, что на транскодирование не хватает i7 930 (4 ядра, 8 потоков). К тому же при присмотре нагрузка не меняется вовсе.

Бывало, когда программу устанавливал как службу, тогда при запуске службы память программа жрала немерено, почти 40% от свободной (16gb, до запуска 4гб, после за 10). Решение: не устанавливать как службу =)


Big Dog пишет:

Для локальных файлов, можно сделать так, смотрим скриншоты

С HMS не первый год сижу. К сожалению, не работает, уже пробовал. В самом HMS отображается все в папках, на телевизоре все как раньше - он сам находит все фильмы.

Интересно еще следующее: когда делал подкасты, телевизор на удивление их отображал, правда тоже мешал со всеми фильмами. Приходилось по несколько минут тратить на поиск фильмов. Поэтому нужны папки.

Профиль сейчас будем тестировать.



Спасибо за помощь =)

7

Re: Sony KDL-W817B/Sony KDL-W828B

GinTR1k
Вот ответ, компании Sony, на вопрос по сортировке

Для отображения файлов не одним списком, а в папках при просмотре списка нажмите options и выберите отображать папки.

Также не забывайте, устанавливать последнюю прошивку на свой телевизор, для добавления функционала и поддерживаемых форматов

WD TV LS+Sony KDLS5600/Samsung UEF5400/Sony PS 3/Yamaha RX-V379/hms 2.33
Кладовая HMS (список полезных ссылок и инструкций)
https://hms.lostcut.net/misc.php?action=pun_attachment&item=2914&download=0
Временно отсутствую
Спасибо сказали: GinTR1k1

8

Re: Sony KDL-W817B/Sony KDL-W828B

Big Dog пишет:

GinTR1k
Вот ответ, компании Sony, на вопрос по сортировке

Для отображения файлов не одним списком, а в папках при просмотре списка нажмите options и выберите отображать папки.

Огромнейшее спасибо! Не знаю почему, но в списках не додумался тыкнуть кнопку настроек.


Big Dog пишет:

Также не забывайте, устанавливать последнюю прошивку на свой телевизор, для добавления функционала и поддерживаемых форматов

Обновляемся всегда.

9 (2016.07.28 03:38:57 отредактировано GinTR1k)

Re: Sony KDL-W817B/Sony KDL-W828B

Big Dog пишет:

что не работает пишите

Есть заедания на сценах, где есть шум (заставка у фильма была).
А в целом никаких больше заеданий не было.

По крайней мере я не пробовал еще Blu-Ray фильм запустить. Только HDRip 1080p. Сегодня проверю и отпишусь.

10

Re: Sony KDL-W817B/Sony KDL-W828B

Посмотрел фильмы качества Blue-ray, BDRemux и BDRim 1080p. Работает как надо, даже во время просмотра того же фильма, который заедал, сейчас все хорошо.
Был один момент, когда фильм подлагивал 1 секунду:

GinTR1k пишет:

Есть заедания на сценах, где есть шум

А так все хорошо. Большое вам спасибо!

11

Re: Sony KDL-W817B/Sony KDL-W828B

Добрый день  у меня телевизор Sony KDL-42W817B   HMS последняя версия,  скорость инета 20 м/с,   роутер Asus rt-n16 Проблема вот при просмотре подкаста  TTV  постоянно происходит минут через  5 обрыв.  Может кто подсобит  оптимальные настройки для телевизора Sony KDL-42W817B               
  подкасты идут через транскод    Ace Stream    заранее спс.

Sony BRAVIA KDL-42W817B + WiFi
ASUS RT-N16

12

Re: Sony KDL-W817B/Sony KDL-W828B

Sony KDL-W817B/Sony KDL-W828B

Огромное спасибо, пользователям Kalyka и Morda за тестирование

Профиль обновлён (03.02.2017)

Готовый файл настроек, построена таблица файлов.
Локально все показывает без транскода, настроено IPTV и интернет радио.

Профиль рассчитан на передачу потока без участия транскода, то есть в качестве источника, может выступать: ноутбук, нетбук, неттоп. В общем не требователен к железу, если не изменять качество выходного потока.

Подробнее

+ открыть спойлер

- Сделан под сжатие h.264/ формат ts
- Добавлена возможность просмотра локального видео 60 fps (720p)
- Более быстрый запуск видео, за счёт уменьшения порций получения потока
- Добавлена перемотка на локальных файлах и подкастах (как перемещение по времени, так и стандартная перемотка)
Возможны задержки (после перемотки, несколько секунд), рекомендуется проводное подключение или WiFi 800.11n 5Ггц) или перемотка, через папку транскодирования/интервал 1 минута
- Многоканальный звук реализован, через AС3 (7.1) или AAC (5.1)
Поддержка DTS только для Blu-ray Disc
Гарантированная работа всех функций, только на прилагаемом профиле и с настройками подкастов из шапки

Так же привожу пример настроек подкастов

Все подкасты ищем в разделе Подкасты

Как поставить индивидуальные профили транскода на подкаст, можно прочитать в faq (вверху сайта), вкладка установка своего профиля транскодирования для конкретного подкаста.

ВНИМАНИЕ!!!!
Не забывайте в настройках всех подкастов, очищать строчку MIME тип

Настройки для версии

+ открыть спойлер

Moonwalk - Фильмы (оптимальный)
Kodik.top - Фильмы (оптимальный)
Getmovie.cc - Фильмы (оптимальный)
Ex-fs.net - Фильмы (оптимальный)
Edem.TV - Фильмы (оптимальный)
Fox-Fan.ru - Фильмы (оптимальный)
Filmix.net - Фильмы (оптимальный)
Kinokong.net - Фильмы (оптимальный)
HDSerials.TV - Фильмы (оптимальный)
HDKinoTeatr.com - Фильмы (оптимальный)
Seasonvar.ru - Фильмы (оптимальный)
Tree.TV - ИФильмы (оптимальный)
Интернет радио премиум AudioAddict - Всё уже настроено добавьте и слушайте
Важно использовать именно приведённые профили транскодирования, для гарантированной работоспособности

Как активировать Nvidia Encoder

+ открыть спойлер

1. Устанавливаем профиль
2. Читаем и воплощаем совет d1mas
https://hms.lostcut.net/viewtopic.php?id=123
3. Только для карт Nvidia, проверить список поддерживаемых карт можно здесь
https://developer.nvidia.com/cuda-gpus (смотрим desktop серию GeForce)

Пример настроек подкастов для версии (Torrent телевидение)

+ открыть спойлер

TTV-VIP_playlist_(real) - AceStream (Видео без изменения)
Tuchka TV - AceStream (Видео без изменения)
TTV Autoplaylist - AceStream (Видео без изменения)
IPTV playlists - AceStream (Видео без изменения)
Torrent Rover - AceStream (Видео без изменения)

Мини FAQ, по настройке Torrent телевидения

+ открыть спойлер

1. Устанавливаем Ace Stream (при установке рекомендуется выбирать HDD, а не SSD)
2. Прописываем порт (8621) в роутере
Нужно создать два правила для TCP и UDP, в разделе безопасность (Firewall)/Пункт/Правила трансляции сетевых адресов (NAT)

+ открыть спойлер

Описание: Ace Stream
Интерфейс: Вам нужна внешняя сеть ISP
Протокол: TCP (первое правило), UDP (второе правило)
Порты (TCP/UDP): (Один порт) (8621)
Перенаправление: IP адрес своего компьютера
Новый порт назначения: 8621
На примере роутера (Zyxel Keenetic Giga 2)

3. Добавить в исключения в брандмауэр Windows (или в другой, сторонний): 
Ace Player HD (ace_player.exe) и Ace Engine (ace_engine.exe).
Пропустить, если не используется брандмауэр
4. В настройках Ace Stream (правой кнопкой мыши, в области уведомлений, на значке ace/опции)
Буфер VOD :50/Live 200 (при сети более 50 Mb/s) или значения больше, если скорость сети, ниже
5. Редактируем файл System32\drivers\etc \hosts (открываем блокнотом)

+ открыть спойлер

Прописываем, после строчки ( #    ::1             localhost)
#       127.0.0.1 medias.kadam.ru
#       127.0.0.1 o3fy684faxh8o.ru
#       127.0.0.1 wac.A164.edgecastcdn.net
#       127.0.0.1 wac.a164.taucdn.net
#       127.0.0.1 cdn.onedmp.com
#       127.0.0.1 ua2cdn.admixer.net
Соблюдая правила синтаксиса, то есть пробелы и т.д.

6. Включаем Ace Player, в меню Медиа/Открыть Ace Stream Content ID/ вставить

ea4702f84cd5b95b13159d12d0785ab31dc30e1e

/указываем пол и возраст
7. Скачиваем ACESTREAM.cfg и добавляем его в hms
https://hms.lostcut.net/misc.php?action … download=1

Как установить :
HMS - Настройки - устройства - своё устройство - настройки - внизу загрузить - скачанный профиль

Обязательно установить VLC или обновить установленный

Мини FAQ

+ открыть спойлер

1.Настройку осуществляйте именно индивидуального устройства, а не по-умолчанию
2.Удалите ваше текущее устройство (настройки hms/устройства/удалить/перезапустите hms выгрузив его полностью)
3.Добавьте устройство по новой (настройки hms/устройства/поиск/поиск/отметить галочкой нужное устройство)
4.Настройте устройство загрузив в него скачанный профиль (настройки hms/устройства/молоток с ключом на самом устройстве/загрузить внизу/ok)
5.Настройте индивидуальные профили для подкастов (на подкасте правой кнопкой мыши/изменить названия-настройки/выбрать профиль транскодирование) (если надо загрузите дополнительные профили транскода)
6.Перезапустите hms выгрузив его полностью
7.IPTV добавляется прямым потоком и появляется в папке интернет телевидение
8.Интернет радио добавляется прямым потоком и появляется в папке интернет радио

Задавайте вопросы не стесняйтесь, по возможности буду отвечать.
Также оставляйте комментарии, со своими настройками подкастов, которых нет в списке.
Тем самым вы помогаете другим.

Бонус
Добавление отметки "просмотренное видео"

Важно!!!
Скриншоты настроек программы (hms)

+ открыть спойлер

Как правильно установить готовый профиль устройства в HMS

Прикреплённые файлы сообщения

Sony KDL W817B ver.5.cfg 45.49 kb, скачивалось 454 раза, начиная с 2017.02.03

WD TV LS+Sony KDLS5600/Samsung UEF5400/Sony PS 3/Yamaha RX-V379/hms 2.33
Кладовая HMS (список полезных ссылок и инструкций)
https://hms.lostcut.net/misc.php?action=pun_attachment&item=2914&download=0
Временно отсутствую
Спасибо сказали: Morda2

13 (2017.01.21 23:06:58 отредактировано Morda)

Re: Sony KDL-W817B/Sony KDL-W828B

Kalyka пишет:

Добрый день  у меня телевизор Sony KDL-42W817B   HMS последняя версия,  скорость инета 20 м/с,   роутер Asus rt-n16 Проблема вот при просмотре подкаста  TTV  постоянно происходит минут через  5 обрыв.  Может кто подсобит  оптимальные настройки для телевизора Sony KDL-42W817B               
  подкасты идут через транскод    Ace Stream    заранее спс.

Такой же ТВ и роутер. Соединение по WiFi 2.4 Ггц (для 5Ггц нужно прошить роутер и впаять модуль). Подключусь к тестированию профиля.
На всякий оставлю ссылку на поддерживаемые кодеки для KDL-42W828B (тот же ТВ только цвет черный) http://pdf.crse.com/manuals/14HE394111/ … st.html#10

Big Dog пишет:

Kalyka ТВ всеядный, но очень негативно относиться к транскодированию, так что лучше отдавать ему поток как есть, единственно, что ему может не понравиться, так это контейнер, но всегда решается подбором DLNA маркера, вообще проблемы с W серией очень редкие

Настройки для версии 2.20/2.21

Big Dog, версия HMS стоит 2.23, поставить 2.20/2.21?

Sony BRAVIA KDL-42W817B + WiFi
ASUS RT-N16

14

Re: Sony KDL-W817B/Sony KDL-W828B

Переустановил HMS 2.21 настроил и загрузил профиль. При любом транскодирование на ТВ черный экран, во временной папке HMS - файл создается. Скрин настройки подкаста http://c2n.me/3GESvEF, при таких настройках работает. Стало транскодировать некоторые файлы *.mkv.

+ открыть спойлер
Общее
Полное имя                               : D:\Downloads\Comedy.Club.Karaoke.Star.2016.WEB-DL (720p)\Comedy.Club.01.chast.2016.12.31.WEB-DL (720p).mkv
Формат                                   : AVI
Формат/Информация                        : Audio Video Interleave
Размер файла                             : 1,14 Гбайт
Продолжительность                        : 42 м. 48 с.
Общий поток                              : 3796 Кбит/сек

Видео
Идентификатор                            : 0
Формат                                   : AVC
Формат/Информация                        : Advanced Video Codec
Профиль формата                          : High@L3.1
Параметр CABAC формата                   : Да
Параметр ReFrames формата                : 1 кадр
Параметр GOP формата                     : M=1, N=12
Идентификатор кодека                     : H264
Продолжительность                        : 42 м. 48 с.
Битрейт                                  : 3593 Кбит/сек
Ширина                                   : 1280 пикселей
Высота                                   : 720 пикселей
Соотношение сторон                       : 16:9
Частота кадров                           : 25,000 кадров/сек
Стандарт вещания                         : Component
Цветовое пространство                    : YUV
Субдискретизация насыщенности            : 4:2:0
Битовая глубина                          : 8 бит
Тип развёртки                            : Прогрессивная
Бит/(Пиксели*Кадры)                      : 0.156
Размер потока                            : 1,07 Гбайт (95%)
Цветовой диапазон                        : Limited

Аудио
Идентификатор                            : 1
Формат                                   : AC-3
Формат/Информация                        : Audio Coding 3
Расширение режима                        : CM (complete main)
Параметр Endianness формата              : Big
Идентификатор кодека                     : 2000
Продолжительность                        : 42 м. 48 с.
Вид битрейта                             : Постоянный
Битрейт                                  : 192 Кбит/сек
Каналы                                   : 2 канала
Расположение каналов                     : Front: L R
Частота                                  : 44,1 КГц
Частота кадров                           : 28,711 кадров/сек (1536 spf)
Битовая глубина                          : 16 бит
Метод сжатия                             : С потерями
Размер потока                            : 58,8 Мбайт (5%)
Выравнивание                             : Соединение по промежуткам
Продолжительность промежутка             : 35  мс. (0,87 видеокадр)

ТВ может воспроизводить этот файл без транскода.

Sony BRAVIA KDL-42W817B + WiFi
ASUS RT-N16

15 (2017.01.21 23:52:48 отредактировано d1mas)

Re: Sony KDL-W817B/Sony KDL-W828B

Morda пишет:

Big Dog, версия HMS стоит 2.23, поставить 2.20/2.21?

От 2.23 я бы рекомендовал пока воздержаться. По крайней мере один косяк там уже обнаружен. Как раз с транскодером.
Ставьте крайнюю стабильную версию. Это 2.21.

16

Re: Sony KDL-W817B/Sony KDL-W828B

Morda

Профиль обновлён, тестируйте

https://hms.lostcut.net/viewtopic.php?pid=7406#p7406

WD TV LS+Sony KDLS5600/Samsung UEF5400/Sony PS 3/Yamaha RX-V379/hms 2.33
Кладовая HMS (список полезных ссылок и инструкций)
https://hms.lostcut.net/misc.php?action=pun_attachment&item=2914&download=0
Временно отсутствую
Спасибо сказали: Kalyka, Morda2

17

Re: Sony KDL-W817B/Sony KDL-W828B

Big Dog пишет:

Morda

Профиль обновлён, тестируйте

https://hms.lostcut.net/viewtopic.php?pid=7406#p7406

загрузил профиль при выставлении транскода  вот для этого торент тв  подкаст  TTV-VIP_playlist_(real) - AceStream (Видео без изменения) или (Входной поток)  на ТВ есть звук , но картинки нет,  просто чёрный экран.

Sony BRAVIA KDL-42W817B + WiFi
ASUS RT-N16

18

Re: Sony KDL-W817B/Sony KDL-W828B

Kalyka пишет:

загрузил профиль при выставлении транскода  вот для этого торент тв  подкаст  TTV-VIP_playlist_(real) - AceStream (Видео без изменения) или (Входной поток)  на ТВ есть звук , но картинки нет,  просто чёрный экран.

В самом подкасте в настройках найдите и уберите mime тип, после перезапустить hms и пересканируйте подкаст
И начните именно с профиля транскодирования входной поток

WD TV LS+Sony KDLS5600/Samsung UEF5400/Sony PS 3/Yamaha RX-V379/hms 2.33
Кладовая HMS (список полезных ссылок и инструкций)
https://hms.lostcut.net/misc.php?action=pun_attachment&item=2914&download=0
Временно отсутствую

19 (2017.01.26 23:20:23 отредактировано Kalyka)

Re: Sony KDL-W817B/Sony KDL-W828B

Big Dog пишет:

В самом подкасте в настройках найдите и уберите mime тип, после перезапустить hms и пересканируйте подкаст
И начните именно с профиля транскодирования входной поток

Всё сделал как вы написали, поток передаётся на тв но всё равно чёрный экран. Самое интересное, что на планшете показывает всё, а тв не хочет. куда ещё копать ?

Прикреплённые файлы сообщения

рис 1.jpg 298.05 kb, скачивалось 198 раз, начиная с 2017.01.26

Sony BRAVIA KDL-42W817B + WiFi
ASUS RT-N16

20

Re: Sony KDL-W817B/Sony KDL-W828B

Big Dog пишет:

Morda

Профиль обновлён, тестируйте

https://hms.lostcut.net/viewtopic.php?pid=7406#p7406

Сори за долгий ответ.

  • По ver.2 тоже самое, что и у Kalyka - транскод не работал(черный экран и иногда обрывки звука).

  • По ver.3: Транскод работает проверил на локальном файле (запустил через папку траскодирования) и подкасте TTV-VIP playlist (AceStream Видео без изменения). По локальным файлам есть проблемы

+ 1й файл - не воспроизводиться, только в ручную через папку транскодирование
Общее
Полное имя                               : D:\Downloads\Comedy.Club.Karaoke.Star.2016.WEB-DL (720p)\Comedy.Club.01.chast.2016.12.31.WEB-DL (720p).mkv
Формат                                   : AVI
Формат/Информация                        : Audio Video Interleave
Размер файла                             : 1,14 Гбайт
Продолжительность                        : 42 м. 48 с.
Общий поток                              : 3796 Кбит/сек

Видео
Идентификатор                            : 0
Формат                                   : AVC
Формат/Информация                        : Advanced Video Codec
Профиль формата                          : High@L3.1
Параметр CABAC формата                   : Да
Параметр ReFrames формата                : 1 кадр
Параметр GOP формата                     : M=1, N=12
Идентификатор кодека                     : H264
Продолжительность                        : 42 м. 48 с.
Битрейт                                  : 3593 Кбит/сек
Ширина                                   : 1280 пикселей
Высота                                   : 720 пикселей
Соотношение сторон                       : 16:9
Частота кадров                           : 25,000 кадров/сек
Стандарт вещания                         : Component
Цветовое пространство                    : YUV
Субдискретизация насыщенности            : 4:2:0
Битовая глубина                          : 8 бит
Тип развёртки                            : Прогрессивная
Бит/(Пиксели*Кадры)                      : 0.156
Размер потока                            : 1,07 Гбайт (95%)
Цветовой диапазон                        : Limited

Аудио
Идентификатор                            : 1
Формат                                   : AC-3
Формат/Информация                        : Audio Coding 3
Расширение режима                        : CM (complete main)
Параметр Endianness формата              : Big
Идентификатор кодека                     : 2000
Продолжительность                        : 42 м. 48 с.
Вид битрейта                             : Постоянный
Битрейт                                  : 192 Кбит/сек
Каналы                                   : 2 канала
Расположение каналов                     : Front: L R
Частота                                  : 44,1 КГц
Частота кадров                           : 28,711 кадров/сек (1536 spf)
Битовая глубина                          : 16 бит
Метод сжатия                             : С потерями
Размер потока                            : 58,8 Мбайт (5%)
Выравнивание                             : Соединение по промежуткам
Продолжительность промежутка             : 35  мс. (0,87 видеокадр)
+ 2й файл - воспроизводится без проблем
Общее
Уникальный идентификатор                 : 181309119094572596482890827320482006852 (0x8866DDBD053268243DD3543C8C530744)
Полное имя                               : D:\Downloads\Comedy.Club.Karaoke.Star.2016.WEB-DL (720p)\Comedy.Club.02.chast.2016.12.31.WEB-DL (720p).mkv
Формат                                   : Matroska
Версия формата                           : Version 2
Размер файла                             : 1,33 Гбайт
Продолжительность                        : 50 м. 11 с.
Общий поток                              : 3788 Кбит/сек
Программа кодирования                    : Lavf54.63.104
Библиотека кодирования                   : Lavf54.63.104 / Lavf54.63.104

Видео
Идентификатор                            : 1
Формат                                   : AVC
Формат/Информация                        : Advanced Video Codec
Профиль формата                          : High@L3.1
Параметр CABAC формата                   : Да
Параметр ReFrames формата                : 1 кадр
Параметр GOP формата                     : M=1, N=12
Идентификатор кодека                     : V_MPEG4/ISO/AVC
Продолжительность                        : 50 м. 11 с.
Битрейт                                  : 3521 Кбит/сек
Ширина                                   : 1280 пикселей
Высота                                   : 720 пикселей
Соотношение сторон                       : 16:9
Режим частоты кадров                     : Постоянный
Частота кадров                           : 25,000 кадров/сек
Стандарт вещания                         : Component
Цветовое пространство                    : YUV
Субдискретизация насыщенности            : 4:2:0
Битовая глубина                          : 8 бит
Тип развёртки                            : Прогрессивная
Бит/(Пиксели*Кадры)                      : 0.153
Размер потока                            : 1,23 Гбайт (93%)
Default                                  : Да
Forced                                   : Нет
Цветовой диапазон                        : Limited

Аудио
Идентификатор                            : 2
Формат                                   : AC-3
Формат/Информация                        : Audio Coding 3
Расширение режима                        : CM (complete main)
Параметр Endianness формата              : Big
Идентификатор кодека                     : A_AC3
Продолжительность                        : 50 м. 11 с.
Вид битрейта                             : Постоянный
Битрейт                                  : 192 Кбит/сек
Каналы                                   : 2 канала
Расположение каналов                     : Front: L R
Частота                                  : 44,1 КГц
Частота кадров                           : 28,711 кадров/сек (1536 spf)
Битовая глубина                          : 16 бит
Метод сжатия                             : С потерями
Размер потока                            : 68,9 Мбайт (5%)
Язык                                     : unknown
Default                                  : Да
Forced                                   : Нет
+ 3й файл - крашит медиаплеер в ТВ

при включенной галке передачи эскизов идет краш медиаплеера ТВ
При выключенной галке передачи эскизов, файл присутствует только в папке транскодирования и успешно траскодируется на ТВ

Общее
Полное имя                               : D:\arhiv\distr\HMS\2016-11-12_12-44-31.flv
Формат                                   : Flash Video
Размер файла                             : 1,18 Гбайт
Продолжительность                        : 53 м. 25 с.
Общий поток                              : 3167 Кбит/сек
Программа кодирования                    : Lavf57.41.100

Видео
Формат                                   : AVC
Формат/Информация                        : Advanced Video Codec
Профиль формата                          : Main@L4
Параметр CABAC формата                   : Да
Параметр ReFrames формата                : 2 кадра
Идентификатор кодека                     : 7
Продолжительность                        : 53 м. 25 с.
Вид битрейта                             : Постоянный
Битрейт                                  : 3000 Кбит/сек
Ширина                                   : 1600 пикселей
Высота                                   : 900 пикселей
Соотношение сторон                       : 16:9
Режим частоты кадров                     : Постоянный
Частота кадров                           : 30,000 кадров/сек
Цветовое пространство                    : YUV
Субдискретизация насыщенности            : 4:2:0
Битовая глубина                          : 8 бит
Тип развёртки                            : Прогрессивная
Бит/(Пиксели*Кадры)                      : 0.069
Размер потока                            : 1,12 Гбайт (95%)
Цветовой диапазон                        : Limited
Коэффициенты матрицы                     : BT.601

Аудио
Формат                                   : AAC
Формат/Информация                        : Advanced Audio Codec
Профиль формата                          : LC
Идентификатор кодека                     : 10
Продолжительность                        : 53 м. 25 с.
Битрейт                                  : 156 Кбит/сек
Каналы                                   : 2 канала
Расположение каналов                     : Front: L R
Частота                                  : 44,1 КГц
Частота кадров                           : 43,066 кадра/сек (1024 spf)
Метод сжатия                             : С потерями
Размер потока                            : 59,7 Мбайт (5%)
+ 4й файл - не воспроизводится и не траскодируется (черный экран)
Общее
Полное имя                               : D:\Downloads\Gizn.i.prikluchenija.4.druzeji.(film.1.4.serij.iz.4).1980.DivX.TVRip-R.G.Torrents.Ru\Gizn.i.prikluchenija.4.druzeji.(film.1.4.serija.iz.4).1980.DivX.TVRip-R.G.Torrents.Ru.avi
Формат                                   : AVI
Формат/Информация                        : Audio Video Interleave
Размер файла                             : 564 Мбайт
Продолжительность                        : 29 м. 14 с.
Общий поток                              : 2698 Кбит/сек
Программа кодирования                    : VirtualDubMod 1.5.10.1 (build 2439/release)
Библиотека кодирования                   : VirtualDubMod build 2439/release

Видео
Идентификатор                            : 0
Формат                                   : MPEG-4 Visual
Параметр BVOP формата                    : 1
Параметр QPel формата                    : Нет
Параметр GMC формата                     : Без точки перехода
Параметр матрицы формата                 : Default (H.263)
Режим смешивания                         : Сжатый битовый поток
Идентификатор кодека                     : DX50
Идентификатор кодека/Подсказка           : DivX 5
Продолжительность                        : 29 м. 14 с.
Битрейт                                  : 2496 Кбит/сек
Номинальный битрейт                      : 6951 Кбит/сек
Ширина                                   : 640 пикселей
Высота                                   : 480 пикселей
Соотношение сторон                       : 4:3
Частота кадров                           : 25,000 кадров/сек
Цветовое пространство                    : YUV
Субдискретизация насыщенности            : 4:2:0
Битовая глубина                          : 8 бит
Тип развёртки                            : Прогрессивная
Метод сжатия                             : С потерями
Бит/(Пиксели*Кадры)                      : 0.325
Размер потока                            : 522 Мбайт (93%)
Библиотека кодирования                   : DivX 5.1.1 (Maupiti) (UTC 2003-11-19)

Аудио
Идентификатор                            : 1
Формат                                   : MPEG Audio
Версия формата                           : Version 1
Профиль формата                          : Layer 3
Режим                                    : Joint stereo
Расширение режима                        : MS Stereo
Идентификатор кодека                     : 55
Идентификатор кодека/Подсказка           : MP3
Продолжительность                        : 29 м. 14 с.
Вид битрейта                             : Постоянный
Битрейт                                  : 192 Кбит/сек
Каналы                                   : 2 канала
Частота                                  : 48,0 КГц
Метод сжатия                             : С потерями
Размер потока                            : 40,2 Мбайт (7%)
Выравнивание                             : Разделение по промежуткам
Продолжительность промежутка             : 40  мс. (1,00 видеокадр)
Время предзагрузки промежутка            : 500  мс.
Sony BRAVIA KDL-42W817B + WiFi
ASUS RT-N16

21

Re: Sony KDL-W817B/Sony KDL-W828B

Morda пишет:

Сори за долгий ответ.

  • По ver.2 тоже самое, что и у Kalyka - транскод не работал(черный экран и иногда обрывки звука).

  • По ver.3: Транскод работает проверил на локальном файле (запустил через папку траскодирования) и подкасте TTV-VIP playlist (AceStream Видео без изменения). По локальным файлам есть проблемы

+ 1й файл - не воспроизводиться, только в ручную через папку транскодирование
Общее
Полное имя                               : D:\Downloads\Comedy.Club.Karaoke.Star.2016.WEB-DL (720p)\Comedy.Club.01.chast.2016.12.31.WEB-DL (720p).mkv
Формат                                   : AVI
Формат/Информация                        : Audio Video Interleave
Размер файла                             : 1,14 Гбайт
Продолжительность                        : 42 м. 48 с.
Общий поток                              : 3796 Кбит/сек

Видео
Идентификатор                            : 0
Формат                                   : AVC
Формат/Информация                        : Advanced Video Codec
Профиль формата                          : High@L3.1
Параметр CABAC формата                   : Да
Параметр ReFrames формата                : 1 кадр
Параметр GOP формата                     : M=1, N=12
Идентификатор кодека                     : H264
Продолжительность                        : 42 м. 48 с.
Битрейт                                  : 3593 Кбит/сек
Ширина                                   : 1280 пикселей
Высота                                   : 720 пикселей
Соотношение сторон                       : 16:9
Частота кадров                           : 25,000 кадров/сек
Стандарт вещания                         : Component
Цветовое пространство                    : YUV
Субдискретизация насыщенности            : 4:2:0
Битовая глубина                          : 8 бит
Тип развёртки                            : Прогрессивная
Бит/(Пиксели*Кадры)                      : 0.156
Размер потока                            : 1,07 Гбайт (95%)
Цветовой диапазон                        : Limited

Аудио
Идентификатор                            : 1
Формат                                   : AC-3
Формат/Информация                        : Audio Coding 3
Расширение режима                        : CM (complete main)
Параметр Endianness формата              : Big
Идентификатор кодека                     : 2000
Продолжительность                        : 42 м. 48 с.
Вид битрейта                             : Постоянный
Битрейт                                  : 192 Кбит/сек
Каналы                                   : 2 канала
Расположение каналов                     : Front: L R
Частота                                  : 44,1 КГц
Частота кадров                           : 28,711 кадров/сек (1536 spf)
Битовая глубина                          : 16 бит
Метод сжатия                             : С потерями
Размер потока                            : 58,8 Мбайт (5%)
Выравнивание                             : Соединение по промежуткам
Продолжительность промежутка             : 35  мс. (0,87 видеокадр)
+ 2й файл - воспроизводится без проблем
Общее
Уникальный идентификатор                 : 181309119094572596482890827320482006852 (0x8866DDBD053268243DD3543C8C530744)
Полное имя                               : D:\Downloads\Comedy.Club.Karaoke.Star.2016.WEB-DL (720p)\Comedy.Club.02.chast.2016.12.31.WEB-DL (720p).mkv
Формат                                   : Matroska
Версия формата                           : Version 2
Размер файла                             : 1,33 Гбайт
Продолжительность                        : 50 м. 11 с.
Общий поток                              : 3788 Кбит/сек
Программа кодирования                    : Lavf54.63.104
Библиотека кодирования                   : Lavf54.63.104 / Lavf54.63.104

Видео
Идентификатор                            : 1
Формат                                   : AVC
Формат/Информация                        : Advanced Video Codec
Профиль формата                          : High@L3.1
Параметр CABAC формата                   : Да
Параметр ReFrames формата                : 1 кадр
Параметр GOP формата                     : M=1, N=12
Идентификатор кодека                     : V_MPEG4/ISO/AVC
Продолжительность                        : 50 м. 11 с.
Битрейт                                  : 3521 Кбит/сек
Ширина                                   : 1280 пикселей
Высота                                   : 720 пикселей
Соотношение сторон                       : 16:9
Режим частоты кадров                     : Постоянный
Частота кадров                           : 25,000 кадров/сек
Стандарт вещания                         : Component
Цветовое пространство                    : YUV
Субдискретизация насыщенности            : 4:2:0
Битовая глубина                          : 8 бит
Тип развёртки                            : Прогрессивная
Бит/(Пиксели*Кадры)                      : 0.153
Размер потока                            : 1,23 Гбайт (93%)
Default                                  : Да
Forced                                   : Нет
Цветовой диапазон                        : Limited

Аудио
Идентификатор                            : 2
Формат                                   : AC-3
Формат/Информация                        : Audio Coding 3
Расширение режима                        : CM (complete main)
Параметр Endianness формата              : Big
Идентификатор кодека                     : A_AC3
Продолжительность                        : 50 м. 11 с.
Вид битрейта                             : Постоянный
Битрейт                                  : 192 Кбит/сек
Каналы                                   : 2 канала
Расположение каналов                     : Front: L R
Частота                                  : 44,1 КГц
Частота кадров                           : 28,711 кадров/сек (1536 spf)
Битовая глубина                          : 16 бит
Метод сжатия                             : С потерями
Размер потока                            : 68,9 Мбайт (5%)
Язык                                     : unknown
Default                                  : Да
Forced                                   : Нет
+ 3й файл - крашит медиаплеер в ТВ

при включенной галке передачи эскизов идет краш медиаплеера ТВ
При выключенной галке передачи эскизов, файл присутствует только в папке транскодирования и успешно траскодируется на ТВ

Общее
Полное имя                               : D:\arhiv\distr\HMS\2016-11-12_12-44-31.flv
Формат                                   : Flash Video
Размер файла                             : 1,18 Гбайт
Продолжительность                        : 53 м. 25 с.
Общий поток                              : 3167 Кбит/сек
Программа кодирования                    : Lavf57.41.100

Видео
Формат                                   : AVC
Формат/Информация                        : Advanced Video Codec
Профиль формата                          : Main@L4
Параметр CABAC формата                   : Да
Параметр ReFrames формата                : 2 кадра
Идентификатор кодека                     : 7
Продолжительность                        : 53 м. 25 с.
Вид битрейта                             : Постоянный
Битрейт                                  : 3000 Кбит/сек
Ширина                                   : 1600 пикселей
Высота                                   : 900 пикселей
Соотношение сторон                       : 16:9
Режим частоты кадров                     : Постоянный
Частота кадров                           : 30,000 кадров/сек
Цветовое пространство                    : YUV
Субдискретизация насыщенности            : 4:2:0
Битовая глубина                          : 8 бит
Тип развёртки                            : Прогрессивная
Бит/(Пиксели*Кадры)                      : 0.069
Размер потока                            : 1,12 Гбайт (95%)
Цветовой диапазон                        : Limited
Коэффициенты матрицы                     : BT.601

Аудио
Формат                                   : AAC
Формат/Информация                        : Advanced Audio Codec
Профиль формата                          : LC
Идентификатор кодека                     : 10
Продолжительность                        : 53 м. 25 с.
Битрейт                                  : 156 Кбит/сек
Каналы                                   : 2 канала
Расположение каналов                     : Front: L R
Частота                                  : 44,1 КГц
Частота кадров                           : 43,066 кадра/сек (1024 spf)
Метод сжатия                             : С потерями
Размер потока                            : 59,7 Мбайт (5%)
+ 4й файл - не воспроизводится и не траскодируется (черный экран)
Общее
Полное имя                               : D:\Downloads\Gizn.i.prikluchenija.4.druzeji.(film.1.4.serij.iz.4).1980.DivX.TVRip-R.G.Torrents.Ru\Gizn.i.prikluchenija.4.druzeji.(film.1.4.serija.iz.4).1980.DivX.TVRip-R.G.Torrents.Ru.avi
Формат                                   : AVI
Формат/Информация                        : Audio Video Interleave
Размер файла                             : 564 Мбайт
Продолжительность                        : 29 м. 14 с.
Общий поток                              : 2698 Кбит/сек
Программа кодирования                    : VirtualDubMod 1.5.10.1 (build 2439/release)
Библиотека кодирования                   : VirtualDubMod build 2439/release

Видео
Идентификатор                            : 0
Формат                                   : MPEG-4 Visual
Параметр BVOP формата                    : 1
Параметр QPel формата                    : Нет
Параметр GMC формата                     : Без точки перехода
Параметр матрицы формата                 : Default (H.263)
Режим смешивания                         : Сжатый битовый поток
Идентификатор кодека                     : DX50
Идентификатор кодека/Подсказка           : DivX 5
Продолжительность                        : 29 м. 14 с.
Битрейт                                  : 2496 Кбит/сек
Номинальный битрейт                      : 6951 Кбит/сек
Ширина                                   : 640 пикселей
Высота                                   : 480 пикселей
Соотношение сторон                       : 4:3
Частота кадров                           : 25,000 кадров/сек
Цветовое пространство                    : YUV
Субдискретизация насыщенности            : 4:2:0
Битовая глубина                          : 8 бит
Тип развёртки                            : Прогрессивная
Метод сжатия                             : С потерями
Бит/(Пиксели*Кадры)                      : 0.325
Размер потока                            : 522 Мбайт (93%)
Библиотека кодирования                   : DivX 5.1.1 (Maupiti) (UTC 2003-11-19)

Аудио
Идентификатор                            : 1
Формат                                   : MPEG Audio
Версия формата                           : Version 1
Профиль формата                          : Layer 3
Режим                                    : Joint stereo
Расширение режима                        : MS Stereo
Идентификатор кодека                     : 55
Идентификатор кодека/Подсказка           : MP3
Продолжительность                        : 29 м. 14 с.
Вид битрейта                             : Постоянный
Битрейт                                  : 192 Кбит/сек
Каналы                                   : 2 канала
Частота                                  : 48,0 КГц
Метод сжатия                             : С потерями
Размер потока                            : 40,2 Мбайт (7%)
Выравнивание                             : Разделение по промежуткам
Продолжительность промежутка             : 40  мс. (1,00 видеокадр)
Время предзагрузки промежутка            : 500  мс.

avi и flv, данный ТВ напрямую не воспроизводит, если сжатие отличное от mpeg, посмотрю почему транскод не включается

Все остальное профиль передает, как есть без транскода, методом копирования, Вы можете это проверить, в панели транскодирования и увидите copy, так что профиль работает без нагрузки на ПК

WD TV LS+Sony KDLS5600/Samsung UEF5400/Sony PS 3/Yamaha RX-V379/hms 2.33
Кладовая HMS (список полезных ссылок и инструкций)
https://hms.lostcut.net/misc.php?action=pun_attachment&item=2914&download=0
Временно отсутствую

22

Re: Sony KDL-W817B/Sony KDL-W828B

Big Dog пишет:

avi и flv, данный ТВ напрямую не воспроизводит, если сжатие отличное от mpeg, посмотрю почему транскод не включается

Все остальное профиль передает, как есть без транскода, методом копирования, Вы можете это проверить, в панели транскодирования и увидите copy, так что профиль работает без нагрузки на ПК

Так я к этому и подводил, что транскод не включается автоматом, а в случае с 4ым файлом даже включение вручную транскода не помогает.

Sony BRAVIA KDL-42W817B + WiFi
ASUS RT-N16

23 (2017.02.02 09:10:40 отредактировано Morda)

Re: Sony KDL-W817B/Sony KDL-W828B

Big Dog пишет:

Профиль для Sony KDL-W817B/Sony KDL-W828B обновлён (30.01.17)

https://hms.lostcut.net/viewtopic.php?pid=7406#p7406

Транскодирование работает, но не запускается автоматом. Kalyka , не могли бы Вы проверить это видео. У меня воспроизводится только ручным запуском транкодирования.

Sony BRAVIA KDL-42W817B + WiFi
ASUS RT-N16

24

Re: Sony KDL-W817B/Sony KDL-W828B

Смогу проверить только после 21-00 вечера

Sony BRAVIA KDL-42W817B + WiFi
ASUS RT-N16

25 (2017.02.02 22:08:18 отредактировано Kalyka)

Re: Sony KDL-W817B/Sony KDL-W828B

Morda пишет:

Транскодирование работает, но не запускается автоматом. Kalyka , не могли бы Вы проверить это видео. У меня воспроизводится только ручным запуском транкодирования.

Добрый вечер. Я проверил ваше видео аналогичная ситуация как у вас.  У меня версия профиля Sony KDL W817B ver.3 . Как мне помог Big Dog  в настройке  профиля, я ничего там не менял после него. Всё ,что нужно для меня,  у меня показывает.

Sony BRAVIA KDL-42W817B + WiFi
ASUS RT-N16

26

Re: Sony KDL-W817B/Sony KDL-W828B

Профиль для Sony KDL-W817B/Sony KDL-W828B обновлён (03.02.17)

https://hms.lostcut.net/viewtopic.php?pid=7406#p7406

WD TV LS+Sony KDLS5600/Samsung UEF5400/Sony PS 3/Yamaha RX-V379/hms 2.33
Кладовая HMS (список полезных ссылок и инструкций)
https://hms.lostcut.net/misc.php?action=pun_attachment&item=2914&download=0
Временно отсутствую

27

Re: Sony KDL-W817B/Sony KDL-W828B

применил данный профиль, но после входа телика в папку "каталог медиаресурсов" медиаплеер крашился постоянно, решение нашел следующие - в настройках этого профиля снял галку "отправлять эскизы" и теперь без вылетов. Остался один вопрос, почему то нет папки "сервис" чтоб можно было задавать выключение или переход в спящий режим  пк, хотя в настройка самого hms стоит галка на функции "показывать папку сервис", на других подключённых устройствах (телефон андроид, медиаплеер sony smp - 200) данная папка есть, приходиться задавать выключение через телефон под рукой. Какие могут быть варианты? За ранее спасибо.

28

Re: Sony KDL-W817B/Sony KDL-W828B

sunchoose пишет:

Остался один вопрос, почему то нет папки "сервис".

Папка UPnP (DLNA) сервера - папка HMS - папка Сервис!!!

29

Re: Sony KDL-W817B/Sony KDL-W828B

abvis пишет:

Папка UPnP (DLNA) сервера - папка HMS - папка Сервис!!!

точно, спасибо *YAHOO*