1

Тема: Hisense H55A6100

Купил недавно такого зверька и не пойму толи в нем проблемы, толи в HMS.

Судя по заявлениям производителя (см. вложения) у него не должно быть проблем с воспроизведением 1080p mkv:

+ Spider-Man.Into.the.Spider-Verse.2018.(lokaliz)BDRip.1080p.mkv
Unique ID                                : 170574299132362081925830619964989131652 (0x80536A4055FEA4DB8B8EA046637A4B84)
Complete name                            : E:\Downloads\Auto\!Kino\Spider-Man.Into.the.Spider-Verse.2018.(lokaliz)BDRip.1080p.mkv
Format                                   : Matroska
Format version                           : Version 4
File size                                : 14.4 GiB
Duration                                 : 1 h 56 min
Overall bit rate                         : 17.6 Mb/s
Movie name                               : Spider-Man.Into.the.Spider-Verse.2018.(lokaliz)BDRip.1080p-SOFCJ
Encoded date                             : UTC 2019-04-14 07:20:12
Writing application                      : mkvmerge v8.3.0 ('Over the Horizon') 64bit
Writing library                          : libebml v1.3.1 + libmatroska v1.4.2
Cover                                    : Yes
Attachments                              : cover.jpg
 
Video
ID                                       : 1
Format                                   : AVC
Format/Info                              : Advanced Video Codec
Format profile                           : High@L4.1
Format settings                          : CABAC / 5 Ref Frames
Format settings, CABAC                   : Yes
Format settings, Reference frames        : 5 frames
Codec ID                                 : V_MPEG4/ISO/AVC
Duration                                 : 1 h 56 min
Bit rate                                 : 14.7 Mb/s
Width                                    : 1 920 pixels
Height                                   : 804 pixels
Display aspect ratio                     : 2.40:1
Frame rate mode                          : Constant
Frame rate                               : 23.976 (24000/1001) FPS
Color space                              : YUV
Chroma subsampling                       : 4:2:0
Bit depth                                : 8 bits
Scan type                                : Progressive
Bits/(Pixel*Frame)                       : 0.396
Stream size                              : 12.0 GiB (83%)
Title                                    : [BDRip by  SOFCJ]
Writing library                          : x264 core 157 r2970+47 cae74a0 t_mod_New [0-bit@all X86_64]
Encoding settings                        : cabac=1 / ref=5 / deblock=1:-3:-3 / analyse=0x3:0x133 / me=umh / subme=11 / psy=1 / fade_compensate=0.00 / psy_rd=0.70:0.00 / mixed_ref=1 / me_range=64 / chroma_me=1 / trellis=2 / 8x8dct=1 / cqm=0 / deadzone=21,11 / fast_pskip=0 / chroma_qp_offset=-2 / threads=12 / lookahead_threads=2 / sliced_threads=0 / nr=0 / decimate=0 / interlaced=0 / bluray_compat=0 / constrained_intra=0 / fgo=0 / bframes=9 / b_pyramid=2 / b_adapt=2 / b_bias=0 / direct=1 / weightb=1 / open_gop=0 / weightp=2 / keyint=230 / keyint_min=23 / scenecut=40 / intra_refresh=0 / rc_lookahead=60 / rc=crf / mbtree=0 / crf=16.3000 / qcomp=0.60 / qpmin=5:5:5 / qpmax=40:40:40 / qpstep=4 / vbv_maxrate=50000 / vbv_bufsize=62500 / crf_max=0.0 / nal_hrd=none / filler=0 / ip_ratio=1.40 / pb_ratio=1.30 / aq=1:1.00 / aq-sensitivity=10.00 / aq-factor=1.00:1.00:1.00 / aq2=0 / aq3=0 / zones=990,1013,crf=12.3/2065,2112,crf=12.3/2195,2247,crf=12.3/2531,2556,crf=12.3/16804,16812,crf=12.3/19499,19509,crf=12.3/29059,29172,crf=12.3/36742,36853,crf=12.9/41112,41151,crf=12.9/53484,53676,crf=12.9/53917,53954,crf=12.9/54194,54239,crf=12.9/74006,74012,crf=12.3/74116,74144,crf=12.3/80471,80535,crf=12.3/102923,102998,crf=12.3/104101,104115,crf=12.3/118635,118692,crf=12.3/119667,119706,crf=12.3/120539,120579,crf=12.3/120956,121069,crf=12.3/122685,122739,crf=12.3/127087,127128,crf=12.3/129011,129089,crf=12.3/129337,129367,crf=12.3/129711,129782,crf=12.3/133733,133847,crf=12.3/138768,138804,crf=12.3/139197,139273,crf=12.3/139309,139390,crf=12.3/139496,139555,crf=12.3/143687,143709,crf=12.3/144320,144366,crf=12.3/145055,145129,crf=12.9/148693,148736,crf=12.3/150191,150206,crf=12.3/151066,151164,crf=12.3/166241,166750,crf=12.3/166792,166887,crf=12.3
Language                                 : Russian
Default                                  : Yes
Forced                                   : No
Color range                              : Limited
Color primaries                          : BT.709
Transfer characteristics                 : BT.709
Matrix coefficients                      : BT.709
+ Arrival.(2016).BDRip.720p.AFM.mkv
General
Unique ID                                : 218806430579558097580497701295411752651 (0xA49C95EE529C64B5A25763FAB474EECB)
Complete name                            : E:\Downloads\Auto\!Kino\Arrival.(2016).BDRip.720p.AFM.mkv
Format                                   : Matroska
Format version                           : Version 4
File size                                : 5.20 GiB
Duration                                 : 1 h 56 min
Overall bit rate                         : 6 387 kb/s
Movie name                               : Прибытие / Arrival (2016) :: AFM ::
Encoded date                             : UTC 2017-03-04 18:31:04
Writing application                      : mkvmerge v8.3.0 ('Over the Horizon') 32bit
Writing library                          : libebml v1.3.1 + libmatroska v1.4.2
 
Video
ID                                       : 1
Format                                   : AVC
Format/Info                              : Advanced Video Codec
Format profile                           : High@L4.1
Format settings                          : CABAC / 10 Ref Frames
Format settings, CABAC                   : Yes
Format settings, Reference frames        : 10 frames
Codec ID                                 : V_MPEG4/ISO/AVC
Duration                                 : 1 h 56 min
Bit rate                                 : 4 111 kb/s
Width                                    : 1 280 pixels
Height                                   : 536 pixels
Display aspect ratio                     : 2.40:1
Frame rate mode                          : Constant
Frame rate                               : 23.976 (24000/1001) FPS
Color space                              : YUV
Chroma subsampling                       : 4:2:0
Bit depth                                : 8 bits
Scan type                                : Progressive
Bits/(Pixel*Frame)                       : 0.250
Stream size                              : 3.34 GiB (64%)
Title                                    : BDRip by AFM
Writing library                          : x264 core 148 r2762+56 6284cf3 t_mod_Custom [8-bit@all X86_64]
Encoding settings                        : cabac=1 / ref=10 / deblock=1:-2:-2 / analyse=0x3:0x113 / me=umh / subme=10 / psy=1 / fade_compensate=0.00 / psy_rd=1.00:0.00 / mixed_ref=1 / me_range=32 / chroma_me=1 / trellis=2 / 8x8dct=1 / cqm=0 / deadzone=21,11 / fast_pskip=0 / chroma_qp_offset=-2 / threads=6 / lookahead_threads=1 / sliced_threads=0 / nr=0 / decimate=1 / interlaced=0 / bluray_compat=0 / constrained_intra=0 / fgo=0 / bframes=11 / b_pyramid=2 / b_adapt=2 / b_bias=0 / direct=1 / weightb=1 / open_gop=0 / weightp=2 / keyint=240 / keyint_min=23 / scenecut=40 / intra_refresh=0 / rc_lookahead=60 / rc=crf / mbtree=0 / crf=16.2000 / qcomp=0.65 / qpmin=0:0:0 / qpmax=69:69:69 / qpstep=4 / vbv_maxrate=50000 / vbv_bufsize=62500 / crf_max=0.0 / nal_hrd=none / filler=0 / ip_ratio=1.25 / pb_ratio=1.18 / aq=3:0.90 / aq-sensitivity=10.00 / aq-factor=1.00:1.00:1.00 / aq2=0 / aq3=0 / zones=1580,2779,q=10/2780,4641,crf=15.3/5471,5718,crf=15.3/5800,8977,crf=15/12500,13433,crf=15/14715,20474,crf=15/20475,25259,crf=15.6/28867,29963,crf=15.6/36970,38897,crf=15.6/39220,47444,crf=15.8/48770,51360,crf=15.6/51839,57039,crf=15.8/59022,62655,crf=15.6/70667,72494,crf=15.8/74055,74548,crf=15.6/74664,74758,crf=15.6/74835,75431,crf=15.6/77440,80113,crf=15.8/80337,83755,crf=16/84266,85441,crf=15.3/85513,85662,crf=15.3/86707,87428,crf=15.3/88866,90275,crf=15.6/90784,93679,crf=15.6/93680,96017,crf=15.6/96379,99960,crf=15.6/101375,104527,crf=15.6/105207,109555,crf=16/111230,112341,crf=15.6/113124,115733,crf=16/115734,116731,crf=15.3/116732,121119,crf=16/121120,121445,crf=15.3/121446,121816,crf=16/122171,122800,crf=16/124030,131195,crf=15.6/131196,131552,crf=16/131553,132304,crf=15.6/132305,132798,crf=15.3/138368,138831,crf=15.3/138832,139146,crf=15.6/139288,140396,crf=15.6/141948,142073,crf=15.6/142364,144902,crf=16/145198,145943,crf=15.6/145944,146639,crf=16/146640,147314,crf=15.3/147606,147655,crf=15.3/148307,148358,crf=15.3/148525,148643,crf=15.3/148764,149085,crf=15.3/150075,151650,crf=16/151660,152632,crf=15.6/153858,153975,crf=15.3/154336,154799,crf=15.3/155083,155331,crf=15.3/157843,158160,crf=15.3/158161,158990,crf=15.6
Language                                 : English
Default                                  : Yes
Forced                                   : No
Color range                              : Limited
Color primaries                          : BT.709
Transfer characteristics                 : BT.709
Matrix coefficients                      : BT.709

Но при поиске по времени на 1080p воспроизведение останавливается и не продолжается если домотать до второй половины, а на 720p как повезет.
Вот видео для иллюстрации: https://yadi.sk/i/Y0pRY9GteN9h0A

Также 1080p видео ближе к середине начинает подлагивать и вообще включается заново.

В соседней комнате стоит Samsung UE40ES6307 который без проблем воспроизводит оба этих файла через тот же HMS.

Может кто помочь состряпать профиль под это устройство или как-то понять что проблема не в HMS?

Прикреплённые файлы сообщения

afb2bf37dbc7.png 22.14 kb, скачивалось 18 раз, начиная с 2019.05.21

e9dfb2d60db9.jpg 42.17 kb, скачивалось 15 раз, начиная с 2019.05.21