91

Re: Подкаст Twitch.tv

Chichkin пишет:

Добрый вечер, а какой профиль нужно использовать для данного подкаста?

Для устройства LG SJ930V

Используем профиль транскодирования Фильмы (оптимальный)
Не забывайте в настройках подкаста, очистить строчку MIME тип, если проставлена

WD TV LS+Sony KDLS5600/Samsung UEF5400/Sony PS 3/Yamaha RX-V379/hms 2.33
Кладовая HMS (список полезных ссылок и инструкций)
https://hms.lostcut.net/misc.php?action=pun_attachment&item=2914&download=0
Временно отсутствую

92

Re: Подкаст Twitch.tv

Перебрал все ) картинки не увидел,   во вкладке транскодирования все по нулям.

LG SJ930V

93

Re: Подкаст Twitch.tv

Chichkin пишет:

Перебрал все ) картинки не увидел,   во вкладке транскодирования все по нулям.

Проверил, все работает, но трансляции запускаются, очень долго, возможно из за ключа --quality=source в дополнительных параметрах подкаста, попробуйте сменить на один из этих ключей --quality=low, --quality=medium,  --quality=high

Прикреплённые файлы сообщения

Twitch работает, проверено.png 170.45 kb, скачивалось 53 раза, начиная с 2017.12.20

WD TV LS+Sony KDLS5600/Samsung UEF5400/Sony PS 3/Yamaha RX-V379/hms 2.33
Кладовая HMS (список полезных ссылок и инструкций)
https://hms.lostcut.net/misc.php?action=pun_attachment&item=2914&download=0
Временно отсутствую

94 (2017.12.20 20:45:36 отредактировано Chichkin)

Re: Подкаст Twitch.tv

Фиг знает... может лыжи не едут может я такое ) тестовое транскодирование запускается, а воспроизведение нет (

LG SJ930V

95

Re: Подкаст Twitch.tv

Chichkin пишет:

Фиг знает... может лыжи не едут может я такое ) тестовое транскодирование запускается, а воспроизведение нет (

Проблема решена настройкой, напоминаю, что не все устройство умеют принимать относительные ссылки, через dmr управление, так что лучше запускать их с устройства

WD TV LS+Sony KDLS5600/Samsung UEF5400/Sony PS 3/Yamaha RX-V379/hms 2.33
Кладовая HMS (список полезных ссылок и инструкций)
https://hms.lostcut.net/misc.php?action=pun_attachment&item=2914&download=0
Временно отсутствую

96 (2018.03.01 14:39:31 отредактировано Campa)

Re: Подкаст Twitch.tv

Здравствуйте. При настройке HMS и твича не могу побороть проблему и прошу помощи знатоков.
Пользуюсь профилем транскодирования Фильмы(дополнительный).
Большинство каналов без проблем просматриваю на ТВ.
Однако часть очень интересных каналов отображает черный экран при наличии звука.
В тестовом транскодировании нашел разницу в выходных файлах.
Воспроизводимый нормально:

+ открыть спойлер
  Duration: N/A, start: 13946.127000, bitrate: N/A
  Program 0
    Stream #0:0: Audio: aac (LC) ([15][0][0][0] / 0x000F), 48000 Hz, stereo, fltp
    Stream #0:1: Video: h264 (High) ([27][0][0][0] / 0x001B), yuv420p, 1920x1080, 30 fps, 30 tbr, 90k tbn, 60 tbc (default)
    Stream #0:2: Data: timed_id3 (ID3  / 0x20334449)
  Program 1
    Stream #0:3: Audio: aac (LC) ([15][0][0][0] / 0x000F), 48000 Hz, stereo, fltp
    Stream #0:4: Video: h264 (Main) ([27][0][0][0] / 0x001B), yuv420p, 1280x720, 30 fps, 30 tbr, 90k tbn, 2k tbc (default)
    Stream #0:5: Data: timed_id3 (ID3  / 0x20334449)
  Program 2
    Stream #0:6: Audio: aac (LC) ([15][0][0][0] / 0x000F), 48000 Hz, stereo, fltp
    Stream #0:7: Video: h264 (Main) ([27][0][0][0] / 0x001B), yuv420p, 852x480, 30 fps, 30 tbr, 90k tbn, 2k tbc (default)
    Stream #0:8: Data: timed_id3 (ID3  / 0x20334449)
  Program 3
    Stream #0:9: Audio: aac (LC) ([15][0][0][0] / 0x000F), 48000 Hz, stereo, fltp
    Stream #0:10: Video: h264 (Main) ([27][0][0][0] / 0x001B), yuv420p, 640x360, 30 fps, 30 tbr, 90k tbn, 2k tbc (default)
    Stream #0:11: Data: timed_id3 (ID3  / 0x20334449)
  Program 4
    Stream #0:12: Audio: aac (LC) ([15][0][0][0] / 0x000F), 48000 Hz, stereo, fltp
    Stream #0:13: Video: h264 (Main) ([27][0][0][0] / 0x001B), yuv420p, 284x160, 30 fps, 30 tbr, 90k tbn, 2k tbc (default)
    Stream #0:14: Data: timed_id3 (ID3  / 0x20334449)
Stream mapping:
  Stream #0:1 -> #0:0 (h264 (native) -> mpeg2video (native))
  Stream #0:0 -> #0:1 (aac (native) -> ac3 (native))
Press [q] to stop, [?] for help
Output #0, dvd, to 'C:\Utils\Home Media Server\Temp\HmsTemp\Test_fdb9195f72637764f854d80ea1072bb0.mpg':
    Stream #0:0: Video: mpeg2video (Main), yuv420p, 1920x1080, q=2-31, 200 kb/s, 25 fps, 90k tbn, 25 tbc (default)
    Stream #0:1: Audio: ac3, 48000 Hz, stereo, fltp, 448 kb/s
frame=  753 fps= 49 q=0.0 size=   33728kB time=00:00:30 bitrate=9126.9kbits/s dup=0 drop=148 speed=1.95x

Черный экран:

+ открыть спойлер
  Duration: N/A, start: 8462.015000, bitrate: N/A
  Program 0
    Stream #0:0: Audio: aac (LC) ([15][0][0][0] / 0x000F), 44100 Hz, stereo, fltp
    Stream #0:1: Video: h264 (Main) ([27][0][0][0] / 0x001B), yuv420p(tv, bt470bg/unknown/unknown), 1920x1080 [SAR 1:1 DAR 16:9], 60 fps, 60 tbr, 90k tbn, 120 tbc (default)
    Stream #0:2: Data: timed_id3 (ID3  / 0x20334449)
  Program 1
    Stream #0:3: Audio: aac (LC) ([15][0][0][0] / 0x000F), 44100 Hz, stereo, fltp
    Stream #0:4: Video: h264 (Main) ([27][0][0][0] / 0x001B), yuv420p(tv, unknown/bt470bg/unknown), 1280x720, 60 fps, 60 tbr, 90k tbn, 2k tbc (default)
    Stream #0:5: Data: timed_id3 (ID3  / 0x20334449)
  Program 2
    Stream #0:6: Audio: aac (LC) ([15][0][0][0] / 0x000F), 44100 Hz, stereo, fltp
    Stream #0:7: Video: h264 (Main) ([27][0][0][0] / 0x001B), yuv420p(tv, unknown/bt470bg/unknown), 1280x720, 30 fps, 30 tbr, 90k tbn, 2k tbc (default)
    Stream #0:8: Data: timed_id3 (ID3  / 0x20334449)
  Program 3
    Stream #0:9: Audio: aac (LC) ([15][0][0][0] / 0x000F), 44100 Hz, stereo, fltp
    Stream #0:10: Video: h264 (Main) ([27][0][0][0] / 0x001B), yuv420p(tv, unknown/bt470bg/unknown), 852x480, 30 fps, 30 tbr, 90k tbn, 2k tbc (default)
    Stream #0:11: Data: timed_id3 (ID3  / 0x20334449)
  Program 4
    Stream #0:12: Audio: aac (LC) ([15][0][0][0] / 0x000F), 44100 Hz, stereo, fltp
    Stream #0:13: Video: h264 (Main) ([27][0][0][0] / 0x001B), yuv420p(tv, unknown/bt470bg/unknown), 640x360, 30 fps, 30 tbr, 90k tbn, 2k tbc (default)
    Stream #0:14: Data: timed_id3 (ID3  / 0x20334449)
  Program 5
    Stream #0:15: Audio: aac (LC) ([15][0][0][0] / 0x000F), 44100 Hz, stereo, fltp
    Stream #0:16: Video: h264 (Main) ([27][0][0][0] / 0x001B), yuv420p(tv, unknown/bt470bg/unknown), 284x160, 30 fps, 30 tbr, 90k tbn, 2k tbc (default)
    Stream #0:17: Data: timed_id3 (ID3  / 0x20334449)
Stream mapping:
  Stream #0:1 -> #0:0 (h264 (native) -> mpeg2video (native))
  Stream #0:0 -> #0:1 (aac (native) -> ac3 (native))
Press [q] to stop, [?] for help
Output #0, dvd, to 'C:\Utils\Home Media Server\Temp\HmsTemp\Test_8fa7efc62f0b8cbefc33b19cbba24bb9.mpg':
    Stream #0:0: Video: mpeg2video (Main), yuv420p(progressive)], 1920x1080 [SAR 1:1 DAR 16:9], q=2-31, 200 kb/s, 25 fps, 90k tbn, 25 tbc (default)
    Stream #0:1: Audio: ac3, 48000 Hz, stereo, fltp, 448 kb/s
frame=  628 fps= 52 q=0.0 size=   57030kB time=00:00:25 bitrate=18672.5kbits/s dup=0 drop=875 speed=2.06x

Видимо, именно это и является причиной непереваривания моим устройством вывода данного файла.
Подскажите при помощи каких команд тонкой настройки можно избавиться от этого (progressive)? Включать/выключать деинтерлейс пробовал..
Все профили пробовал тоже. Картинка этого канала есть только в профиле Фильны (оновной) 1280x720, но плохого качества, с лагами и с отстающим звуком....

97

Re: Подкаст Twitch.tv

Добрый день. Подскажите пожалуйста, возможно ли настроить HMS таким образом, чтобы он передавал поток с twitch.tw сразу на телевизор, без транскодирования?

98

Re: Подкаст Twitch.tv

vintic пишет:

Добрый день. Подскажите пожалуйста, возможно ли настроить HMS таким образом, чтобы он передавал поток с twitch.tw сразу на телевизор, без транскодирования?

Все зависит от устройства, если оно поддерживает прямые ссылки или транспортные потоки, то да
Вот почитайте, многое станет понятно
https://hms.lostcut.net/viewtopic.php?id=502

WD TV LS+Sony KDLS5600/Samsung UEF5400/Sony PS 3/Yamaha RX-V379/hms 2.33
Кладовая HMS (список полезных ссылок и инструкций)
https://hms.lostcut.net/misc.php?action=pun_attachment&item=2914&download=0
Временно отсутствую
Спасибо сказали: vintic1

99

Re: Подкаст Twitch.tv

Big Dog пишет:

Все зависит от устройства, если оно поддерживает прямые ссылки или транспортные потоки, то да
Вот почитайте, многое станет понятно
https://hms.lostcut.net/viewtopic.php?id=502

Спасибо за информацию, прочитал. Но настроить все равно не получилось. У меня следующая ситуация: к телевизору подключен плеер Dune 303D, который подключается к HMS для просмотра twich. Когда стояла старая версия HMS, то я ее без проблем настроил на передачу потока с twitch.tw на Дюну напрямую без транскодирования. После обновления на версию 2.33 мне это уже не удается. Когда я выбираю "Оригинальную ссылку", то Дюна выдает ошибку "Список воспроизведения пуст", если выбираю "Оригинальную ссылку (перенаправление)" или "Оригинальный поток", то получаю ошибку "Неподдерживаемый формат". Куда мне копать, что можно еще посмотреть?

100

Re: Подкаст Twitch.tv

vintic пишет:

Спасибо за информацию, прочитал. Но настроить все равно не получилось. У меня следующая ситуация: к телевизору подключен плеер Dune 303D, который подключается к HMS для просмотра twich. Когда стояла старая версия HMS, то я ее без проблем настроил на передачу потока с twitch.tw на Дюну напрямую без транскодирования. После обновления на версию 2.33 мне это уже не удается. Когда я выбираю "Оригинальную ссылку", то Дюна выдает ошибку "Список воспроизведения пуст", если выбираю "Оригинальную ссылку (перенаправление)" или "Оригинальный поток", то получаю ошибку "Неподдерживаемый формат". Куда мне копать, что можно еще посмотреть?

Запрос на создание профиля в этой теме https://hms.lostcut.net/viewtopic.php?id=205 напишите, чтобы я не забыл, можно сделать профиль для устройства, через легкий транскод, имитировать прямую передачу, если прочитали статью по передаче потоков, то там было написано про это

Все что вы указываете, говорит о том, что устройство не воспринимает прямые ссылки, да и зная приставки Дюна это не удивительно, они никогда не умели работать с прямым потоком, всегда нужно было имитировать

А почему именно нужна прямая ссылка, чем вызвано такое желание, что сейчас не устраивает?

WD TV LS+Sony KDLS5600/Samsung UEF5400/Sony PS 3/Yamaha RX-V379/hms 2.33
Кладовая HMS (список полезных ссылок и инструкций)
https://hms.lostcut.net/misc.php?action=pun_attachment&item=2914&download=0
Временно отсутствую

101

Re: Подкаст Twitch.tv

Big Dog пишет:

А почему именно нужна прямая ссылка, чем вызвано такое желание, что сейчас не устраивает?

Прямая ссылка по большому счету не нужна. Просто хотелось, чтобы HMS не создавал файлы на диске, когда я смотрю twitch. В ранней версии я использовал "Транскодирование без использования диска", но в этой версии HMS при его использовании подскасты начинают тормозить, когда заполняется буфер транскодирования. Может подскажете, как эту проблему решить?

102

Re: Подкаст Twitch.tv

vintic пишет:

Прямая ссылка по большому счету не нужна. Просто хотелось, чтобы HMS не создавал файлы на диске, когда я смотрю twitch. В ранней версии я использовал "Транскодирование без использования диска", но в этой версии HMS при его использовании подскасты начинают тормозить, когда заполняется буфер транскодирования. Может подскажете, как эту проблему решить?

Так это темп файл, после просмотра удаляется или при перезапуске программы или при заполнение выделенного места на HDD, что в нем страшного?

Если оперативной памяти мало, то без времянки не куда, к сожалению

WD TV LS+Sony KDLS5600/Samsung UEF5400/Sony PS 3/Yamaha RX-V379/hms 2.33
Кладовая HMS (список полезных ссылок и инструкций)
https://hms.lostcut.net/misc.php?action=pun_attachment&item=2914&download=0
Временно отсутствую

103

Re: Подкаст Twitch.tv

Big Dog пишет:

Если оперативной памяти мало, то без времянки не куда, к сожалению

Так в том-то и дело, что свободной оперативки хватает: из 12Гб порядка 4-6 Гб всегда свободно. Просто, когда я ставлю Транскодирование без использования диска, то картинка на ТВ начинает идти рывками и без звука, после того, как оперативка, отведенная под буфер закончится. То есть, если под буфер отдать 1Гб оперативки, то картинка начинает тормозить через 10 минут просмотра, если 2Гб - то через 20 минут. Как эти тормоза победить, я не знаю...

104

Re: Подкаст Twitch.tv

vintic пишет:

Так в том-то и дело, что свободной оперативки хватает: из 12Гб порядка 4-6 Гб всегда свободно. Просто, когда я ставлю Транскодирование без использования диска, то картинка на ТВ начинает идти рывками и без звука, после того, как оперативка, отведенная под буфер закончится. То есть, если под буфер отдать 1Гб оперативки, то картинка начинает тормозить через 10 минут просмотра, если 2Гб - то через 20 минут. Как эти тормоза победить, я не знаю...

Как победить, я указал выше, использовать буфер на hdd, иначе НЕ КАК, сама функция рассчитана на передачу локального контента, это раз и второе работает не очень хорошо

WD TV LS+Sony KDLS5600/Samsung UEF5400/Sony PS 3/Yamaha RX-V379/hms 2.33
Кладовая HMS (список полезных ссылок и инструкций)
https://hms.lostcut.net/misc.php?action=pun_attachment&item=2914&download=0
Временно отсутствую
Спасибо сказали: vintic1

105

Re: Подкаст Twitch.tv

Добрый день. С сегодняшнего дня при попытке просмотра Twitch Дюна выдает ошибку: неподдерживаемый формат. До этого проблем не было, все было хорошо. Настройки никакие не менял. В чем может быть проблема?

106

Re: Подкаст Twitch.tv

У меня тоже перестал работать подкаст Twitch - ни один стрим не запускается, выдает что выставлены ограничения или канал оффлайн, и в транскодировании только один вариант для выбора качества

107

Re: Подкаст Twitch.tv

istriped пишет:

У меня тоже перестал работать подкаст Twitch - ни один стрим не запускается, выдает что выставлены ограничения или канал оффлайн, и в транскодировании только один вариант для выбора качества

Подтверждаю. Такая же проблема. Есть идеи?

108

Re: Подкаст Twitch.tv

istriped пишет:

У меня тоже перестал работать подкаст Twitch - ни один стрим не запускается, выдает что выставлены ограничения или канал оффлайн, и в транскодировании только один вариант для выбора качества

тоже самое

109

Re: Подкаст Twitch.tv

istriped пишет:

У меня тоже перестал работать подкаст Twitch - ни один стрим не запускается, выдает что выставлены ограничения или канал оффлайн, и в транскодировании только один вариант для выбора качества

Согласен, не работает Twitch подкаст.
Вопросы получат ответы, будут ли обновления, нас слышат, проблема с Twitch есть действительно для автора HMS  *DONT_KNOW* ?