1

Тема: Decoder (codec dvb_teletext) not found for input stream

Ни кто не знает, как с этим бороться? Профиль транскодирования VLC - FFMPEG. Как отключить поток субтитров в демуксере?

+ открыть спойлер

Команда демуксера:

"C:\Program Files\VideoLAN\VLC\vlc.exe" -Idummy --language en --high-priority --demuxdump-file="\\.\pipe\205DF785EC4547658AAEEC08F171C472" "http://192.168.34.101:8001/1:0:16:70D:12:70:1680000:0:0:0:" :demux=dump

Команда транскодера:

"C:\Program Files (x86)\Home Media Server\hmsmpeg.exe" -probesize 7000000 -analyzeduration 10000000 -i "\\.\pipe\3CC0B35C54F14B3EADC610FEA7E00C51" -f matroska -write_crc32 0 -vcodec libx264 -partitions none -sc_threshold 0 -trellis 0 -me_method dia -refs 1 -subq 0 -bufsize 10000000 -q:v 0 -pix_fmt yuv420p -threads 4 -acodec ac3 -ab 256000 -ar 48000 "H:\HMS-tmp\HmsTemp\Test_8650800ebc7a5549b20f967cfc3c9cea.mkv"
[h264 @ 01f53aa0] SPS unavailable in decode_picture_timing
[h264 @ 01f53aa0] non-existing PPS 0 referenced
[h264 @ 01f53aa0] decode_slice_header error
[h264 @ 01f53aa0] no frame!
[h264 @ 01f53aa0] mmco: unref short failure
Last message repeated 1 times
[h264 @ 01f53aa0] number of reference frames (0+5) exceeds max (4; probably corrupt input), discarding one
[h264 @ 01f53aa0] reference picture missing during reorder
Last message repeated 1 times
[h264 @ 01f53aa0] Missing reference picture, default is 65597
Last message repeated 1 times
[h264 @ 01f53aa0] mmco: unref short failure
Last message repeated 1 times
[h264 @ 01f53aa0] Increasing reorder buffer to 2
Input #0, mpegts, from '\\.\pipe\3CC0B35C54F14B3EADC610FEA7E00C51':
Duration: N/A, start: 52417.134211, bitrate: N/A
Program 1801
Program 1802
Program 1803
Program 1804
Program 1805
Stream #0:0[0xcd]: Video: h264 (High) ([27][0][0][0] / 0x001B), yuv420p(tv, bt470bg, top first), 720x576 [SAR 16:11 DAR 20:11], 25 fps, 50 tbr, 90k tbn, 50 tbc
Stream #0:1[0x131](rus): Audio: mp2 ([4][0][0][0] / 0x0004), 48000 Hz, stereo, s16p, 160 kb/s
Stream #0:2[0x1f9](rus,rus): Subtitle: dvb_teletext ([6][0][0][0] / 0x0006)
Program 1807
Program 1809
Program 1810
Program 1811
Program 1812
Program 1813
Program 1814
Program 1815
Program 1816
Program 1817
Program 1818
Program 1819
Program 1820
Program 1821
Program 1822
Program 1823
Program 1824
Program 1825
Program 1826
Program 1827
Program 1828
Program 1829
Program 1830
Program 1831
Stream mapping:
Stream #0:0 -> #0:0 (h264 (native) -> h264 (libx264))
Stream #0:1 -> #0:1 (mp2 (native) -> ac3 (native))
Stream #0:2 -> #0:2 (? (?) -> ass (ssa))
Decoder (codec dvb_teletext) not found for input stream #0:2

Интересно, что если в ts ремуксировать, то ошибки нет. Или если поток без субтитров, то тоже нет ошибки.
В настройках устройства отключена поддержка субтитров.

BRAVIA KDL-40EX700, webos@LG-42LF650V, WDTVLive, Enigma@DM800, Enigma@GI-S8120, Android@LT-43T600F