601 (2018.05.22 21:30:40 отредактировано koruy78)

Re: Вопрос - Ответ

Voland пишет:

По умолчанию C:\_acestream_cache_ это тоже скрытая папка.
Кстати, кэш acestream лучше гнать в RAM'ку. Для этого нужно в свойствах ярлыка Ace Stream Media Center, прописать вот это: "C:\Documents and Settings\Имя учётки\Application Data\ACEStream\engine\ace_engine.exe" --live-cache-type memory --login test --password test, это для XP.

с acestream, в ярлыке по умолчанию стоит путь рабочая папка C:\WINDOWS\winsxs и путь объект "C:\Documents and Settings\Admin\Application Data\ACEStream\engine\ace_engine.exe" --onstart-webui-open-page proxy-server-main
или я не там смотрю? Для чего менять этот путь? Вроде бы проблем нет, если не считать, что не с первого раза запускается(цепляется) канал.

Voland пишет:

Странно, выглядит как будто бы Ваш ТВ все запрашивает проигранный файл. Попробуйте, ради интереса, просмотреть что-нибудь и выключить телевизор. Возможно, через минут 5-7 файлы удалятся.

Посмотрел, выключил телевизор, подождал 15 минут - временный файл с фильмом не удалился. *WALL*

Philips 42pfl4007t/60

602 (2018.05.22 22:44:16 отредактировано Cableman)

Re: Вопрос - Ответ

Orenburg пишет:

У меня тоже самое с некоторыми папками на диске например в папке "Фото" некоторые папки мой ресивер не может воспроизвести если размер папки большой сразу зависает.Хотя раньше эту папку воспроизводил нормально, по мере заполнении папки новыми фото ресивер стал зависать.Короче я так думаю что все зависит от кэш памяти устройства воспроизведения(в данном случае мой ресивер).Устройству элементарно не хватает кэш памяти.Попробуйте проэксперементировать создайте на своем дополнительном диске папку и наполняйте её постепенно файлами,обратите внимание при каком размере папки ваш телек начнёт глючить. *DRINK*

Да, у меня явно что-то похожее, но не совсем. До покупки нового большого жёсткого диска именно папки были такие же, но на разных дисках. И всё работало. Сейчас они те же самые, но физически на одном диске - и проблемы. Можно ли это как-то победить из настроек HMS? Обидно, новый диск покупал как раз для упорядочения "видеотеки".
Ну понятно, что копать надо в этом направлении. Буду экспериментировать :)

603

Re: Вопрос - Ответ

koruy78 пишет:

с acestream, в ярлыке по умолчанию стоит путь рабочая папка C:\WINDOWS\winsxs и путь объект "C:\Documents and Settings\Admin\Application Data\ACEStream\engine\ace_engine.exe" --onstart-webui-open-page proxy-server-main
или я не там смотрю? Для чего менять этот путь?

Если, Вы замените параметр --onstart-webui-open-page proxy-server-main на --live-cache-type memory --login test --password test и, после этого будете запускать Ace этим ярлыком то, это освободить Ваш жёсткий диск от кеша, соответственно продлить срок исправной работы.

koruy78 пишет:

Посмотрел, выключил телевизор, подождал 15 минут - временный файл с фильмом не удалился. *WALL*

Очень странно. Если хотите, попробуйте поставить галочку на "Буфер транскодирования - транскодирование без использования диска". В этом случае, все временные файлы будут записываться в RAM'ку. Считаю это идеальным вариантом настройки для торрент-тв, в случае транскодирования.

LG 27MT75S-PZQ
Samsung HT-F4500
Спасибо сказали: koruy781

604 (2018.05.24 18:50:52 отредактировано koruy78)

Re: Вопрос - Ответ

В общем изменил путь для временных файлов на другой диск.

Voland пишет:

По умолчанию C:\_acestream_cache_ это тоже скрытая папка.

Этой папки так и не нашел(искал до изменения пути).

Voland пишет:

Если, Вы замените параметр --onstart-webui-open-page proxy-server-main на --live-cache-type memory --login test --password test и, после этого будете запускать Ace этим ярлыком то, это освободить Ваш жёсткий диск от кеша, соответственно продлить срок исправной работы.

Изменил это в ярлыке для AceStream смотрю интернет телевидение, например телеканал НСТ, весь буфер пишется на диск D, с моим выбранным путем для временных файлов. И вот ещё на телевизоре остановил(выключил) канал, а транскодирование на компе продолжается. Зашёл по новой на телевизоре в HMS транскодирование прекратилось.

Philips 42pfl4007t/60

605

Re: Вопрос - Ответ

Voland пишет:

В этом случае, все временные файлы будут записываться в RAM'ку. Считаю это идеальным вариантом настройки для торрент-тв, в случае транскодирования.

Поставил галку на: Буфер транскодирования - транскодирование без использования диска, размер интернет 200 Мб, теперь через профиль Acestream, теперь  временные файлы не кэшируются, но загрузка ЦП постоянно прыгает и прыгает от 5 до 80%, а если с файлом кэша загрузка ЦП на одном уровне около 70%, то же самое и на подкастах для фильмов - это нормально? Какие настройки лучше оставить?

Philips 42pfl4007t/60

606 (2018.05.25 19:18:10 отредактировано Voland)

Re: Вопрос - Ответ

koruy78 пишет:

но загрузка ЦП постоянно прыгает и прыгает от 5 до 80%, а если с файлом кэша загрузка ЦП на одном уровне около 70%, то же самое и на подкастах для фильмов - это нормально?

Да. В целом, это снижает нагрузку на ЦП.

koruy78 пишет:

Какие настройки лучше оставить?

Дело Ваше.
Лично я использовал эти настройки HMS, когда смотрел с его помощью ТТВ и считаю это лучшим вариантом при транскоде, так-как снимает постоянный процесс запись/чтение с харда.
Не знаю как при этом варианте будут работать подкасты с фильмами. Наблюдайте, пробуйте разные настройки.

LG 27MT75S-PZQ
Samsung HT-F4500

607

Re: Вопрос - Ответ

Voland пишет:

Да. В целом, это снижает нагрузку на ЦП.

Дело в том, что скачки идут: за минуту 10 раз от 5 до 80%.

Voland пишет:

Не знаю как при этом варианте будут работать подкасты с фильмами. Наблюдайте, пробуйте разные настройки

Работают так же как и с интернет телевидением.

Philips 42pfl4007t/60

608 (2018.05.26 00:02:28 отредактировано koruy78)

Re: Вопрос - Ответ

Обнаружил папку acestream cachce, на диске D и она весит 12Гб и не удаляется этот кэш после закрытия программы HMS, значит не работает способ RAM памяти для интернет тв с профилем acestream, фигня какая то получается. Папка системная пытаюсь удалить предупреждение выскакивает. Может кто нормально обьяснить и показать в картинках как пустить интернет телевидение через ram память. Инструкции не подходят, всё равно всё кэшируется.

Philips 42pfl4007t/60

609

Re: Вопрос - Ответ

Вроде удалось запустить обработку acestream через ram память. сначала сделал как здесь https://hms.lostcut.net/viewtopic.php?id=527 затем сделал это: Voland пишет:
Для этого нужно в свойствах ярлыка Ace Stream Media Center, прописать вот это: "C:\Documents and Settings\Имя учётки\Application Data\ACEStream\engine\ace_engine.exe" --live-cache-type memory --login test --password test, это для XP. И в настройках hms поставил галку буфер транскодирования - транскодирование без использования диска, размер пункт интернет поставил 200мб.

Philips 42pfl4007t/60

610

Re: Вопрос - Ответ

Теперь другая проблема прекращает показывать hd канал транскодирует 8 720 кб и зависает намертво.

Philips 42pfl4007t/60

611

Re: Вопрос - Ответ

koruy78, если уверены что с трансляцией канала всё в порядке (что в выходные бывает нечасто, так-как народ уезжает загород) то, пробуйте постепенно возвращать настройки.

LG 27MT75S-PZQ
Samsung HT-F4500

612

Re: Вопрос - Ответ

Буду ставить все с нуля и возвращать как было  уж лучше пусть пишет кэш на диск но показывает все каналы

Philips 42pfl4007t/60

613

Re: Вопрос - Ответ

Хм... странно все это попробовал смотреть на смартфоне через приложение acestream то же 5 сек показывает и зависают каналы,  только один канал из избранных работает нормально

Philips 42pfl4007t/60

614

Re: Вопрос - Ответ

Натворил с этими настройками, теперь кэш и в папку acestream cache пишется и в hms temp, восстановление настроек из рез. копии не помогает. Придётся теперь ещё и hms заново ставить. Супер.

Philips 42pfl4007t/60

615

Re: Вопрос - Ответ

koruy78 пишет:

Теперь другая проблема прекращает показывать hd канал транскодирует 8 720 кб и зависает намертво.

koruy78, если вы о плейлисте торрентТВ, то нужно перед просмотром обновлять плейлист - тогда не будет зависания.

616 (2018.05.27 15:01:27 отредактировано Voland)

Re: Вопрос - Ответ

koruy78 пишет:

Натворил с этими настройками, теперь кэш и в папку acestream cache пишется и в hms temp, восстановление настроек из рез. копии не помогает. Придётся теперь ещё и hms заново ставить. Супер.

Всё правильно, так и должно быть при транскодировании. Поймите в случае транскодирования, hms берёт файл из кэша acestream, декодирует его, при этом помещая его в свою папку кеша и, после этого передаёт его на устройство.   

koruy78 пишет:

Хм... странно все это попробовал смотреть на смартфоне через приложение acestream то же 5 сек показывает и зависают каналы,  только один канал из избранных работает нормально

Это то, о чём Вас предупреждал. В выходные дни с трансляцией ТТВ частые проблемы, из-за отъезда людей на дачи. Так что, все эксперименты с настройками лучше проводить вечером в будний день.

LG 27MT75S-PZQ
Samsung HT-F4500

617

Re: Вопрос - Ответ

Эксперимент продолжается: при просмотре интернет тв через acestream иногда прекращается трансляция и выкидывает на главный экран с где находится названия каналов плейлиста - это может происходить через час или через три или через пять часов трансляции, по разному на разных каналах, может здесь нужно что то отметить?

Прикреплённые файлы сообщения

1.JPG 286.5 kb, скачивалось 25 раз, начиная с 2018.05.27

Philips 42pfl4007t/60

618

Re: Вопрос - Ответ

koruy78, для ТТВ вполне нормальное явление. Даже на ПК далеко не всегда удаётся досмотреть футбольный матч, например.

LG 27MT75S-PZQ
Samsung HT-F4500

619

Re: Вопрос - Ответ

ТТВ можно смотреть так же через транскодирование: фильмы - основной.

Philips 42pfl4007t/60

620

Re: Вопрос - Ответ

koruy78, вот из-за чего проблемы.

УВАЖАЕМЫЕ ПОЛЬЗОВАТЕЛИ.

25.05.2018 В ДАТАЦЕНТРЕ, ГДЕ СТОЯТ СЕРВЕРА TORRENT-TV, СЛУЧИЛОСЬ ЧП С ЭЛЕКТРОПИТАНИЕМ.

На восстановление подачи электричества требуется время.

Приносим свои извинения за причинённые неудобства, мы делаем всё от нас зависящее, чтобы сократить время простоя.

http://mytalks.ru/index.php?topic=6640. … 6#msg82126

LG 27MT75S-PZQ
Samsung HT-F4500

621 (2018.06.21 10:59:22 отредактировано Oompaloomp)

Re: Вопрос - Ответ

Уважаемые коллеги, добрый день

прошу помочь разобраться с проблемой воспроизведения слайд-шоу.
Ситуация такая, воспроизведение слайд-шоу с музыкальной подложкой работает, но профиль выбранной музыки в настройках Фото (Слайд-шоу) РИС 1 - Музыка (Объединение - Случайный порядок, Повтор) исходного файла Single Track работает не корректно, на устройство передается два аудио сигнала РИС 2:
1й это шум от исходного файла Single Track с профилем по умолчанию - Музыка (Объединение - Случайный порядок, Повтор)
2й Проигрываемая музыка которая еле слышна на заднем фоне.
Во время воспроизведения на устройстве слайд-шоу, при смене композиции шум уходит, но как только начинает проигрываться следующая опять начинается.

+ Скрины

РИС 1
https://is.gd/jnfa3U
https://is.gd/LxaW6p
РИС 2
https://i.imgur.com/oYFxu2P.png

+ Код транскодера

Командная строка

"D:\Program Files (x86)\Home Media Server\hmsmpeg.exe" -f s16be -ac 2 -ar 44100 -i "\\.\pipe\6543584069554DE29E0B2316310CCD52"  -ac 2 -vn -f wav  "\\.\pipe\3626AEC27A134B0E817B7C0A6B7B55B0"

Сообщения

"D:\Program Files (x86)\Home Media Server\hmsmpeg.exe" -f s16be -ac 2 -ar 44100 -i "\\.\pipe\6543584069554DE29E0B2316310CCD52"  -ac 2 -vn -f wav  "\\.\pipe\3626AEC27A134B0E817B7C0A6B7B55B0"

ffmpeg version 3.3.3 Copyright (c) 2000-2017 the FFmpeg developers
built with gcc 5.3.0 (i686-win32-sjlj-rev0, Built by MinGW-W64 project)
Guessed Channel Layout for Input Stream #0.0 : stereo
Input #0, s16be, from '\\.\pipe\6543584069554DE29E0B2316310CCD52':
Duration: N/A, bitrate: 1411 kb/s
Stream #0:0: Audio: pcm_s16be, 44100 Hz, stereo, s16, 1411 kb/s
Stream mapping:
Stream #0:0 -> #0:0 (pcm_s16be (native) -> pcm_s16le (native))
Press [q] to stop, [?] for help
Output #0, wav, to '\\.\pipe\3626AEC27A134B0E817B7C0A6B7B55B0':
Metadata:
encoder         : Lavf57.71.100
Stream #0:0: Audio: pcm_s16le ([1][0][0][0] / 0x0001), 44100 Hz, stereo, s16, 1411 kb/s
Metadata:
encoder         : Lavc57.89.100 pcm_s16le
LG 42LA644V/Philips 32PFL3605/60

622 (2018.06.30 22:17:56 отредактировано koruy78)

Re: Вопрос - Ответ

Возник вопрос беру плейлисты с суперпомойки, некоторые каналы при воспроизведении на тв показывают: Не верный ключ ошибка, через некоторое время при повторном воспроизведении этого канала ошибки нет, канал показывает, потом опять возникает не верный ключ ошибка, причём каналы с одинаковым названием, но разные адреса, а некоторые каналы никогда не показывают такой ошибки. С чем связано?

Philips 42pfl4007t/60

623

Re: Вопрос - Ответ

koruy78, тоже столкнулся с этим явлением. Например, это постоянно происходит с Первым каналом во время трансляций футбольных матчей.
Предполагаю это связано с тем что в данном случаи первоисточником трансляции является поток с официального сайта канала, ну и видимо специально ставится такая заглушка, чтобы смотрели через приложение или сайт канала.
Нечего не могу утверждать, это всего лишь мои домыслы.

LG 27MT75S-PZQ
Samsung HT-F4500

624 (2018.07.02 21:58:08 отредактировано koruy78)

Re: Вопрос - Ответ

Помогите разобраться что произошло. В настройках - транскодер активирован пункт буфер транскодирования без использования диска. Размер видео 10мб. Так вот фильмы из подкастов можно было смотреть без использования диска, т.е. через RAM, всё было норм. перемотка мне не нужна была, а вот пауза нужна и работала, теперь же ставлю на паузу какой нибудь фильм, на 1,2 минуты, потом пытаюсь продолжить просмотр показывает ещё несколько секунд и в окне транскодирование исчезает транскодирование и телевизор начинает дальше гнать что находится в папке трейлер, инфу о фильме. Что случилось? В настройках тв всё перерыл : воспроизведение 1р и повтор, перемешивание вкл., выкл. хз что случилось. Тв philips 42pfl4007/60

Philips 42pfl4007t/60

625

Re: Вопрос - Ответ

Размер видео 10мб наверное очень мало, на паузе все равно идет транскодирование и оно перезаписывает по заполнению буфера каждые 10мб. У меня экспериментальным путем получилось вот так

+ открыть спойлер

https://c.radikal.ru/c29/1807/23/111827cffc6f.png

пока проблем нет

LG 42LA660V-ZA

626

Re: Вопрос - Ответ

slav67 пишет:

Размер видео 10мб наверное очень мало, на паузе все равно идет транскодирование и оно перезаписывает по заполнению буфера каждые 10мб. У меня экспериментальным путем получилось вот так

+ открыть спойлер

https://c.radikal.ru/c29/1807/23/111827cffc6f.png

пока проблем нет

Такая же фигня происходит на паузе транскодирование доходит до 1000 мб останавливается, нажимаю запуск после паузы и пару секунд в окошке с транскодированием информация пропадает и ничего больше не показывает. При это м системник гудит как не нормальный.

Philips 42pfl4007t/60

627 (2018.07.03 14:08:07 отредактировано koruy78)

Re: Вопрос - Ответ

Придётся наверное смотреть без паузы. Решил засеч время, после которого невозможно воспроизвести видео после паузы: 50сек. - нормально пауза выдерживается и дальше воспроизводится, если проходит минута на паузе всё прекращается.

Philips 42pfl4007t/60

628 (2018.07.03 20:51:12 отредактировано maran)

Re: Вопрос - Ответ

Всем доброго времени суток! Помогите новичку! Никак не могу разобраться, как запустить воспроизведение видео с cайта на ТВ ч/з HMS. Пример. Или тыкните в тему на форуме, сам так и не нашел. Всем спасибо!

629 (2018.07.03 21:40:40 отредактировано koruy78)

Re: Вопрос - Ответ

maran пишет:

Всем доброго времени суток! Помогите новичку! Никак не могу разобраться, как запустить воспроизведение видео с cайта на ТВ ч/з HMS. Пример. Или тыкните в тему на форуме, сам так и не нашел. Всем спасибо!

Вам нужно настроить HMS, загрузить подкасты и уже потом искать в подкастах этот мультфильм. Вот неплохие видео по предварительной настройке HMS, изучайте инструкции на форуме, что бы отшлифовать настройки. https://youtu.be/VTuSDIEAmSo
https://youtu.be/hpXfwpEToHc

Philips 42pfl4007t/60

630

Re: Вопрос - Ответ

Доброго времени суток.

Давненько тут не был :)

Имеется проблемка с файлом/ами, вот свойства:

+ открыть спойлер

General
Unique ID                   : 206688015921571071805960801930062106100 (0x9B7EA9F5695F1896869C34B06BB08DF4)
Complete name               : \\KEENETIC_GIGA\Transcend (внешний ЖД)\СЕРИАЛЫ\Странные Дела\Сезон 1\S01E01.Глава первая Исчезновение Уилла Байерса.mkv
Format                      : Matroska
Format version              : Version 4 / Version 2
File size                   : 5.75 GiB
Duration                    : 48 min 23 s
Overall bit rate            : 17.0 Mb/s
Movie name                  : Очень странные дела | Stranger Things (S01E01) - Release by whip93
Encoded date                : UTC 2017-11-15 18:42:56
Writing application         : mkvmerge v17.0.0 ('Be Ur Friend') 64-bit
Writing library             : libebml v1.3.5 + libmatroska v1.4.8

Video
ID                          : 1
Format                      : HEVC
Format/Info                 : High Efficiency Video Coding
Format profile              : Main 10@L5@Main
Codec ID                    : V_MPEGH/ISO/HEVC
Duration                    : 48 min 23 s
Bit rate                    : 15.5 Mb/s
Width                       : 3 840 pixels
Height                      : 2 160 pixels
Display aspect ratio        : 16:9
Frame rate mode             : Constant
Frame rate                  : 23.976 (24000/1001) FPS
Color space                 : YUV
Chroma subsampling          : 4:2:0
Bit depth                   : 10 bits
Bits/(Pixel*Frame)          : 0.078
Stream size                 : 5.23 GiB (91%)
Title                       : Mastered by whip93
Language                    : English
Default                     : Yes
Forced                      : No
Color range                 : Limited
Color primaries             : BT.709
Transfer characteristics    : BT.709
Matrix coefficients         : BT.709

Audio #1
ID                          : 2
Format                      : AC-3
Format/Info                 : Audio Coding 3
Codec ID                    : A_AC3
Duration                    : 48 min 17 s
Bit rate mode               : Constant
Bit rate                    : 384 kb/s
Channel(s)                  : 6 channels
Channel positions           : Front: L C R, Side: L R, LFE
Sampling rate               : 48.0 kHz
Frame rate                  : 31.250 FPS (1536 SPF)
Bit depth                   : 16 bits
Compression mode            : Lossy
Stream size                 : 133 MiB (2%)
Title                       : MVO (Jaskier)
Language                    : Russian
Service kind                : Complete Main
Default                     : Yes
Forced                      : No

Audio #2
ID                          : 3
Format                      : AC-3
Format/Info                 : Audio Coding 3
Codec ID                    : A_AC3
Duration                    : 48 min 17 s
Bit rate mode               : Constant
Bit rate                    : 384 kb/s
Channel(s)                  : 6 channels
Channel positions           : Front: L C R, Side: L R, LFE
Sampling rate               : 48.0 kHz
Frame rate                  : 31.250 FPS (1536 SPF)
Bit depth                   : 16 bits
Compression mode            : Lossy
Stream size                 : 133 MiB (2%)
Title                       : MVO (LostFilm)
Language                    : Russian
Service kind                : Complete Main
Default                     : No
Forced                      : No

Audio #3
ID                          : 4
Format                      : AC-3
Format/Info                 : Audio Coding 3
Codec ID                    : A_AC3
Duration                    : 48 min 17 s
Bit rate mode               : Constant
Bit rate                    : 384 kb/s
Channel(s)                  : 6 channels
Channel positions           : Front: L C R, Side: L R, LFE
Sampling rate               : 48.0 kHz
Frame rate                  : 31.250 FPS (1536 SPF)
Bit depth                   : 16 bits
Compression mode            : Lossy
Stream size                 : 133 MiB (2%)
Title                       : MVO (NewStudio)
Language                    : Russian
Service kind                : Complete Main
Default                     : No
Forced                      : No

Audio #4
ID                          : 5
Format                      : AC-3
Format/Info                 : Audio Coding 3
Codec ID                    : A_AC3
Duration                    : 48 min 23 s
Bit rate mode               : Constant
Bit rate                    : 384 kb/s
Channel(s)                  : 6 channels
Channel positions           : Front: L C R, Side: L R, LFE
Sampling rate               : 48.0 kHz
Frame rate                  : 31.250 FPS (1536 SPF)
Bit depth                   : 16 bits
Compression mode            : Lossy
Stream size                 : 133 MiB (2%)
Title                       : Original
Language                    : English
Service kind                : Complete Main
Default                     : No
Forced                      : No

Text #1
ID                          : 6
Format                      : UTF-8
Codec ID                    : S_TEXT/UTF8
Codec ID/Info               : UTF-8 Plain Text
Duration                    : 46 min 11 s
Bit rate                    : 90 b/s
Count of elements           : 654
Stream size                 : 30.7 KiB (0%)
Title                       : О. Чернявская
Language                    : Russian
Default                     : No
Forced                      : No

Text #2
ID                          : 7
Format                      : UTF-8
Codec ID                    : S_TEXT/UTF8
Codec ID/Info               : UTF-8 Plain Text
Duration                    : 46 min 11 s
Bit rate                    : 88 b/s
Count of elements           : 653
Stream size                 : 29.9 KiB (0%)
Title                       : О. Чернявська
Language                    : Ukrainian
Default                     : No
Forced                      : No

Text #3
ID                          : 8
Format                      : UTF-8
Codec ID                    : S_TEXT/UTF8
Codec ID/Info               : UTF-8 Plain Text
Duration                    : 46 min 12 s
Bit rate                    : 87 b/s
Count of elements           : 769
Stream size                 : 29.7 KiB (0%)
Title                       : Original (SDH)
Language                    : English
Default                     : No
Forced                      : No

проблема в том что периодически "фризы" - останавливается и пишет "загрузка" потом снова воспроизведение - 1-2 минуты и снова загрузка.

Файл/ы расположены на внешнем ЖД подключенном к роутеру Zyxel Keentic Giga II который в свою очередь подключен к телевизору по LAN проводом.
Процессор - i5370k , оперативы  -16 ГБ.

Какие настройки выставить чтобы не подгружало постоянно, или тупо процессор уже старенький и не справляется с H.265 ? или может другой профиль выставить транскодирования ?

Спасибо.